<svg xmlns="http://www.w3.org/2000/svg">
<defs>
<font id="TypoGraphica" horiz-adv-x="1223" >
  <font-face 
    font-family="TypoGraphica"
    font-weight="400"
    font-stretch="normal"
    units-per-em="2048"
    panose-1="2 0 5 0 0 0 0 0 0 0"
    ascent="1638"
    descent="-410"
    x-height="1023"
    cap-height="1419"
    bbox="-750 -695.574 2766 2034"
    underline-thickness="150"
    underline-position="-142"
    unicode-range="U+001D-U+FB06"
  />
<missing-glyph horiz-adv-x="2459" 
d="M507 417h-66v325h66v-96c7 7 15 13 24 17s19 6 28 6c53 0 80 -34 80 -102v-150h-66v145c0 27 -11 41 -33 41s-33 -14 -33 -41v-145zM773 480c6 0 13 2 22 5c7 3 13 8 18 13s9 12 12 19c3 6 4 14 4 24s-1 18 -4 23c-3 7 -7 14 -12 19c-4 6 -10 11 -18 14c-5 3 -13 4 -22 4
s-17 -1 -22 -4c-8 -3 -14 -8 -18 -14c-5 -5 -9 -12 -12 -19c-3 -9 -5 -16 -5 -23c0 -6 2 -14 5 -24c3 -7 7 -14 12 -19s11 -10 18 -13c9 -3 16 -5 22 -5zM837 636l60 35v-254h-65v33h-2c-11 -22 -33 -33 -66 -33c-16 -1 -31 2 -45 9c-13 6 -25 15 -38 26
c-11 11 -19 24 -25 39c-7 15 -10 30 -9 47c-1 15 2 31 8 48c7 17 16 31 25 41c11 12 23 21 38 28c13 7 28 10 46 10c31 0 55 -10 73 -29zM916 417v254h65v-41c5 13 10 22 13 27c5 7 10 13 15 16c7 3 15 6 22 7c15 1 24 2 28 2l-21 -76c-18 0 -31 -4 -38 -12
c-7 -9 -11 -23 -11 -41v-136h-73zM1066 417v325h72v-185h1l53 113h87l-63 -124l76 -129h-89l-64 110h-1v-110h-72zM1283 445l37 50c15 -15 32 -22 52 -22c21 0 32 6 32 19c0 7 -6 12 -18 15c-4 2 -10 4 -19 5c-7 1 -14 3 -21 6l-10 4l-10 4c-3 2 -6 4 -8 6c-3 2 -6 5 -9 8
c-5 5 -8 12 -11 21c-3 6 -4 16 -4 29c0 14 2 25 7 34c5 10 12 18 20 24c8 7 17 12 28 15c9 3 20 4 35 4c14 0 28 -3 42 -9c13 -6 25 -14 36 -24l-39 -41c-11 9 -24 14 -38 14c-16 0 -24 -5 -24 -14s6 -15 17 -18c3 -1 7 -2 13 -3l8 -2l9 -2c11 -3 22 -7 31 -12
s17 -13 24 -23c7 -8 9 -21 8 -40c0 -15 -2 -26 -7 -35c-5 -10 -12 -18 -21 -25c-7 -7 -17 -12 -30 -16c-13 -3 -25 -5 -35 -5c-15 0 -24 0 -27 1c-9 1 -16 3 -23 6l-11 5l-11 5l-11 8zM1546 417h-67v325h67v-96c6 7 14 13 23 17s19 6 28 6c54 0 81 -34 81 -102v-150h-67v145

<glyph glyph-name="f_f" unicode="FF" horiz-adv-x="1306" 
d="M737 751h-251v-750h-319v750h-105l-72 274h177c0 124 21 219 64 286s103 115 180 146c75 31 167 46 276 46l2 -296c-81 1 -135 -11 -162 -35c-27 -25 -41 -74 -41 -147h251c0 124 21 219 64 286s103 115 180 146c75 31 167 46 276 46l2 -296c-81 1 -135 -11 -162 -35
c-27 -25 -41 -74 -41 -147h125l71 -274h-196v-750h-319v750z" />
    <glyph glyph-name="f_f_i" unicode="FFI" horiz-adv-x="1679" 
d="M1257 1503l354 -3v-286h-352v-7c-81 1 -135 -11 -162 -35c-27 -25 -41 -74 -41 -147l567 -2v-1022h-319v750h-248v-750h-319v750h-251v-750h-319v750h-105l-72 274h177c0 124 21 219 64 286s103 115 180 146c75 31 167 46 276 46l2 -296c-81 1 -135 -11 -162 -35
c-27 -25 -41 -74 -41 -147h251c0 124 21 219 64 286s103 115 180 146c71 21 163 37 276 46z" />
    <glyph glyph-name="f_i" unicode="FI" horiz-adv-x="1084" 
d="M1022 1217h-378v-2c-38 -1 -76 -20 -114 -57c-27 -25 -42 -69 -43 -133h540l-2 -1026l-319 1v751h-217v-750h-319v750h-107l-69 274h176c0 123 21 218 64 285s103 116 180 147c75 31 168 44 278 40h330v-280z" />
    <glyph glyph-name="f_k" unicode="FK" horiz-adv-x="1979" 
d="M-2 1025h187c0 124 21 219 64 286s103 115 180 146c73 31 165 45 276 44h465v-873l338 395h375l-370 -439l435 -584h-399l-376 502v-502h-320v1216h-149v-1c-78 -5 -131 -19 -159 -43c-27 -25 -41 -74 -41 -147h115l71 -274h-186v-750h-319v750h-115z" />
    <glyph glyph-name="f_f_l" unicode="FFL" horiz-adv-x="1583" 
d="M1005 1020h198v185c-77 -5 -129 -19 -157 -43c-27 -25 -41 -73 -41 -142zM480 1023h206c0 119 21 211 64 278s103 115 180 146c75 31 167 46 276 46v-2h323v-1492l-326 -1v743h-198v-741h-319v750l-201 -1v-748h-319v750h-98l-72 274h170c0 124 21 219 64 286
s103 115 180 146c75 31 167 46 276 46l-1 -288c-78 -5 -131 -19 -159 -43c-27 -24 -42 -74 -46 -149z" />
    <glyph glyph-name="f_l" unicode="FL" horiz-adv-x="1059" 
d="M-4 1025h170c1 118 23 210 64 275c43 66 103 114 180 145c77 30 169 45 276 45l319 1v-1491h-319v744l-201 1v-744h-319v750h-98zM481 1025h205l1 177c-85 -7 -138 -20 -161 -41c-25 -23 -40 -68 -45 -136z" />
    <glyph glyph-name="f_t" unicode="FT" horiz-adv-x="1400" 
d="M-4 1025h170c0 124 21 219 64 286s103 115 180 146c77 30 167 45 271 46h412l-1 -478h122l71 -274h-193v-319c0 -91 57 -136 170 -136c38 0 66 4 84 13l-92 -318c-15 -3 -32 -4 -49 -4c-97 0 -176 15 -238 46c-64 31 -112 77 -145 139c-33 61 -49 139 -49 235v344h-288
v-750h-319v750h-98zM485 1025h288v191h-88v-1c-78 -5 -131 -19 -159 -43c-27 -25 -41 -74 -41 -147z" />
    <glyph glyph-name="l_t" unicode="LT" horiz-adv-x="1127" 
d="M319 751h184v-344c0 -96 16 -174 49 -235c33 -62 81 -108 145 -139c62 -31 141 -46 238 -46c17 0 34 1 49 4l92 318c-18 -9 -46 -13 -84 -13c-113 0 -170 45 -170 136v319h183l72 274h-255v392l-319 2v-394h-184v395l-319 -1v-1421l319 4v749z" />
    <glyph glyph-name="longs_t" unicode="&#x17f;T" horiz-adv-x="1277" 
d="M550 1025h104v192h-135v-2c-78 -5 -131 -19 -159 -43c-27 -25 -41 -74 -41 -147v-1024h-319v1024c0 124 21 219 64 286s103 115 180 146c75 31 167 45 276 43h449v-83h4v-392h198l-72 -274h-126v-319c0 -91 57 -136 170 -136c38 0 66 4 84 13l-92 -318
c-15 -3 -32 -4 -49 -4c-97 0 -176 15 -238 46c-64 31 -112 77 -145 139c-33 61 -49 139 -49 235v344h-175z" />
    <glyph glyph-name="s_t" unicode="ST" horiz-adv-x="1576" 
d="M423 688c39 -11 99 -27 179 -47c65 -17 120 -48 165 -95s67 -120 67 -221c0 -75 -19 -139 -58 -194s-91 -96 -155 -123c-65 -28 -132 -42 -201 -42c-56 0 -108 5 -157 14c-44 9 -88 24 -131 46c-41 21 -85 49 -132 86l162 221c63 -65 141 -98 232 -98c95 0 143 29 143 86
c0 31 -26 53 -79 67l-178 47c-67 18 -122 51 -167 99c-45 47 -67 120 -67 219c0 75 18 139 55 192c36 51 84 90 145 116c62 25 128 38 199 38c97 0 167 -13 210 -38c42 -26 89 -39 142 -40l156 1v397l319 -2v-395h247l-65 -269h-182v-321c0 -91 57 -136 170 -136
c38 0 66 4 84 13l-92 -318c-15 -3 -32 -4 -49 -4c-97 0 -176 15 -238 46c-64 31 -112 77 -145 139c-33 61 -49 139 -49 235v346l-157 -1c-70 -1 -127 13 -172 42c-45 28 -102 40 -173 36c-73 0 -109 -21 -109 -63c0 -37 27 -64 81 -79z" />
    <glyph glyph-name="t_h" unicode="TH" horiz-adv-x="1883" 
d="M567 1025h312v394l320 1v-421c31 31 69 56 114 74c46 18 93 27 140 27c257 0 385 -150 385 -451v-649h-320v627c0 61 -14 107 -42 138s-67 46 -118 46c-49 0 -88 -15 -116 -46c-29 -31 -43 -77 -43 -138v-627h-320v751h-312v-319c0 -91 57 -136 170 -136c38 0 66 4 84 13
l-92 -318c-15 -3 -32 -4 -49 -4c-97 0 -176 15 -238 46c-64 31 -112 77 -145 139c-33 61 -49 139 -49 235v344h-248l71 274h177v394l319 -2v-392z" />
    <glyph glyph-name="t_i" unicode="TI" horiz-adv-x="1272" 
d="M1140 1168c-25 -15 -53 -23 -84 -23s-58 7 -83 22s-45 35 -60 61c-15 27 -23 56 -23 85c0 31 7 59 22 84c16 26 36 46 61 61s52 22 83 22s59 -7 84 -22s45 -36 60 -61s22 -53 22 -84c0 -32 -7 -60 -22 -85s-35 -45 -60 -60zM572 1023h650l-1 -4v-1020l-319 -1v753h-330
v-319c0 -91 57 -136 170 -136c38 0 66 4 84 13l-92 -318c-15 -3 -32 -4 -49 -4c-97 0 -176 15 -238 46c-64 31 -112 77 -145 139c-33 61 -49 139 -49 235v344h-253l71 274h182v394l319 -2v-394z" />
    <glyph glyph-name="t_t" unicode="TT" horiz-adv-x="1553" 
d="M902 751h-376v-319c0 -91 57 -136 170 -136c38 0 66 4 84 13l-92 -318c-15 -3 -32 -4 -49 -4c-97 0 -176 15 -238 46c-64 31 -112 77 -145 139c-33 61 -49 139 -49 235v344h-211l72 274h139v394l319 -2v-392h376v394l319 -2v-392h212l-71 -274h-141v-319
c0 -91 57 -136 170 -136c38 0 66 4 84 13l-92 -318c-15 -3 -32 -4 -49 -4c-97 0 -176 15 -238 46c-64 31 -112 77 -145 139c-33 61 -49 139 -49 235v344z" />
    <glyph glyph-name="A_A" unicode="AA" horiz-adv-x="2813" 
d="M921 514h-279l140 252zM2121 514h-279l140 252zM1202 4l-2 -4h363l-2 4l137 248h567l139 -252h359l-602 1093l-179 326l-180 -326l-420 -763l-421 763l-179 326l-180 -326l-602 -1093h359l139 252h567z" />
    <glyph glyph-name="E_T" unicode="ET" horiz-adv-x="1865" 
d="M1130 1116l-782 -3v-241h281l81 -299h-362v-274h551l2 -299h-901v1419h1731l84 -303h-337v-1116h-348v1116z" />
    <glyph glyph-name="E_W" unicode="EW" horiz-adv-x="2670" 
d="M1273 1l-385 1117h-540v-246h281l-4 -299h-277v-274h551l-3 -299h-896v1419h1134l201 -667l354 663l348 -675l213 679h370l-534 -1418h-8l-385 733l-414 -733h-6z" />
    <glyph glyph-name="f_i" unicode="FI" horiz-adv-x="1298" 
d="M900 1v1117h-552v-245h281l81 -299h-362v-573l-348 1v1417h929v-1h319v-1418z" />
    <glyph glyph-name="f_l" unicode="FL" horiz-adv-x="1760" 
d="M900 0v1118h-552v-245h281l81 -299h-362v-573l-348 1v1417h939v-1l309 1v-1095h461l-93 -324h-716z" />
    <glyph glyph-name="H_E" unicode="HE" horiz-adv-x="1756" 
d="M798 0h908l-2 299h-551v289h362l-81 308h-281v222h508l3 301h-866v-518h-450v518h-348v-1419h348v580h450v-580z" />
    <glyph glyph-name="L_A" unicode="LA" horiz-adv-x="2193" 
d="M1218 524h279l-139 252zM930 0h-930v1418l348 1v-1095h401l429 779l180 326l179 -326l606 -1103h-359l-143 262h-567z" />
    <glyph glyph-name="L_F" unicode="LF" horiz-adv-x="1657" 
d="M748 2v5l-2 -7h-746v1418l348 1v-1095h400v1095h859v-301h-511v-245h281l81 -299h-362v-573z" />
    <glyph glyph-name="L_L" unicode="LL" horiz-adv-x="1681" 
d="M1538 0h-1538v1418l348 1v-1095h384v1094l348 1v-1095h551z" />
    <glyph glyph-name="t_t" unicode="TT" horiz-adv-x="1831" 
d="M1096 1096h-388v-1096h-348v1096h-273l-87 323h1697l84 -323h-337v-1096h-348v1096z" />
    <glyph glyph-name="T_W" unicode="TW" horiz-adv-x="2816" 
d="M1419 1l-378 1095h-333v-1096h-348v1096h-273l-87 323h1280l201 -667l354 663l348 -675l213 679h370l-534 -1418h-8l-385 733l-414 -733h-6z" />
    <glyph glyph-name="T_Y" unicode="TY" horiz-adv-x="2134" 
d="M1280 654l-258 442h-314v-1096h-348v1096h-273l-87 323h1241l220 -419l219 419h404l-436 -762v-657h-368v654z" />
    <glyph glyph-name=".notdef" horiz-adv-x="2459" 
d="M507 417h-66v325h66v-96c7 7 15 13 24 17s19 6 28 6c53 0 80 -34 80 -102v-150h-66v145c0 27 -11 41 -33 41s-33 -14 -33 -41v-145zM773 480c6 0 13 2 22 5c7 3 13 8 18 13s9 12 12 19c3 6 4 14 4 24s-1 18 -4 23c-3 7 -7 14 -12 19c-4 6 -10 11 -18 14c-5 3 -13 4 -22 4
s-17 -1 -22 -4c-8 -3 -14 -8 -18 -14c-5 -5 -9 -12 -12 -19c-3 -9 -5 -16 -5 -23c0 -6 2 -14 5 -24c3 -7 7 -14 12 -19s11 -10 18 -13c9 -3 16 -5 22 -5zM837 636l60 35v-254h-65v33h-2c-11 -22 -33 -33 -66 -33c-16 -1 -31 2 -45 9c-13 6 -25 15 -38 26
c-11 11 -19 24 -25 39c-7 15 -10 30 -9 47c-1 15 2 31 8 48c7 17 16 31 25 41c11 12 23 21 38 28c13 7 28 10 46 10c31 0 55 -10 73 -29zM916 417v254h65v-41c5 13 10 22 13 27c5 7 10 13 15 16c7 3 15 6 22 7c15 1 24 2 28 2l-21 -76c-18 0 -31 -4 -38 -12
c-7 -9 -11 -23 -11 -41v-136h-73zM1066 417v325h72v-185h1l53 113h87l-63 -124l76 -129h-89l-64 110h-1v-110h-72zM1283 445l37 50c15 -15 32 -22 52 -22c21 0 32 6 32 19c0 7 -6 12 -18 15c-4 2 -10 4 -19 5c-7 1 -14 3 -21 6l-10 4l-10 4c-3 2 -6 4 -8 6c-3 2 -6 5 -9 8
c-5 5 -8 12 -11 21c-3 6 -4 16 -4 29c0 14 2 25 7 34c5 10 12 18 20 24c8 7 17 12 28 15c9 3 20 4 35 4c14 0 28 -3 42 -9c13 -6 25 -14 36 -24l-39 -41c-11 9 -24 14 -38 14c-16 0 -24 -5 -24 -14s6 -15 17 -18c3 -1 7 -2 13 -3l8 -2l9 -2c11 -3 22 -7 31 -12
s17 -13 24 -23c7 -8 9 -21 8 -40c0 -15 -2 -26 -7 -35c-5 -10 -12 -18 -21 -25c-7 -7 -17 -12 -30 -16c-13 -3 -25 -5 -35 -5c-15 0 -24 0 -27 1c-9 1 -16 3 -23 6l-11 5l-11 5l-11 8zM1546 417h-67v325h67v-96c6 7 14 13 23 17s19 6 28 6c54 0 81 -34 81 -102v-150h-67v145
c0 27 -11 41 -33 41c-21 0 -32 -14 -32 -41v-145zM1858 500c12 11 18 25 18 42c0 6 -2 13 -5 22s-8 15 -13 19c-4 5 -10 10 -19 13s-16 5 -23 5c-6 0 -13 -2 -22 -5c-7 -3 -13 -7 -19 -13c-5 -5 -10 -12 -13 -19c-3 -9 -5 -16 -5 -22c0 -17 6 -31 18 -42
c13 -12 27 -18 41 -18c15 0 29 6 42 18zM1696 493c-7 19 -11 35 -10 49c0 17 4 33 11 50c8 17 17 30 28 40c14 11 28 20 42 26c15 6 32 9 49 9s34 -3 50 -9c13 -5 27 -14 42 -26c12 -11 22 -25 29 -40c7 -13 10 -30 10 -50s-3 -37 -10 -50c-7 -15 -17 -29 -29 -40
c-13 -12 -27 -21 -42 -27c-14 -7 -31 -10 -50 -10c-18 0 -34 3 -48 10c-16 7 -30 16 -43 27c-12 11 -22 25 -29 41zM2122 660v-74c-15 11 -31 17 -47 17c-17 0 -31 -6 -42 -17s-17 -25 -17 -42c0 -7 2 -16 5 -26c4 -9 8 -16 12 -22s10 -11 18 -14c9 -3 17 -5 25 -5
c19 0 34 6 47 18v-72c-9 -5 -17 -8 -25 -9c-15 -1 -22 -2 -23 -2c-19 -1 -37 2 -53 9s-30 16 -42 28c-11 11 -20 25 -27 40s-10 30 -9 46c0 19 3 37 9 54c7 16 16 30 28 42s26 21 42 27s33 9 52 9c19 2 34 0 47 -7zM2142 417v325h72v-185h1l52 113h88l-64 -124l76 -129h-88
l-64 110h-1v-110h-72zM2424 759c6 -6 9 -13 9 -22s-3 -16 -9 -22s-13 -9 -22 -9s-16 3 -22 9s-9 13 -9 22s3 16 9 22s13 9 22 9s16 -3 22 -9zM2427 711c7 7 11 16 11 26c0 9 -4 18 -11 25s-16 11 -25 11c-10 0 -19 -4 -26 -11s-10 -15 -10 -25c0 -11 3 -19 10 -26
s16 -11 26 -11c9 0 18 4 25 11zM2391 753v-13h17l3 3c1 1 1 2 1 3c0 2 -1 4 -2 5s-3 2 -6 2h-13zM2391 717h-6v40h18c5 0 7 0 8 -1c2 -1 4 -2 5 -3c1 -4 2 -6 2 -7c0 -3 -1 -5 -3 -7s-5 -3 -9 -3c1 -1 3 -2 4 -2l2 -3l2 -3l7 -11h-7l-5 9l-2 3l-2 2l-3 3c-1 1 -1 1 -2 1h-9
v-18zM1424 1370l-1 -1zM1306 1430l-1 15v14l-6 -21c4 -4 6 -7 7 -8zM1507 1190v-2c0 -21 -10 -51 -31 -90c-3 -17 -10 -30 -21 -41c-11 -27 -30 -56 -59 -89l-3 -4l-2 -3c-3 -3 -6 -6 -8 -7l-6 -7l-5 -5l-8 -8l-3 -3l-2 -2l-1 -1c-3 -3 -8 -13 -17 -28l-13 -31l-16 -26
l-11 -12l-5 -10l-1 -1l-1 -2l-3 -3c-1 -1 -1 -1 -2 -1h-1l-1 1c-1 -1 -2 -2 -3 -2h-1c-1 1 -1 1 -1 2c-1 -1 -2 -1 -3 -1h-1c-1 1 -2 3 -2 5v3l3 11l9 21c5 9 7 15 7 18v1c-1 5 -2 8 -2 9c0 11 9 17 27 20l1 2v4c0 11 2 22 7 31c1 5 4 12 9 22c9 19 18 30 28 34
c1 7 3 13 6 18c0 1 0 1 1 2s2 3 3 5c3 4 6 8 9 13c6 7 10 13 12 20c1 1 1 3 1 7v6l1 6c0 7 1 13 3 18v1c0 8 7 18 20 29l3 4l3 4c-5 1 -9 9 -12 22c-1 4 -2 10 -3 18c-1 7 -2 13 -3 16c-7 1 -12 6 -17 13v-4c0 -13 -3 -20 -10 -20s-16 6 -25 18c0 -9 -3 -17 -8 -22
c-4 -5 -9 -7 -15 -7c-15 1 -22 11 -22 31c-11 -14 -19 -21 -24 -21c-1 0 -3 1 -4 2c-2 3 -4 16 -6 40c-11 -14 -19 -21 -26 -21c-2 0 -4 1 -5 2c-4 3 -6 10 -6 20c0 1 0 3 1 6v5l1 6c-5 -5 -10 -7 -17 -7c-5 0 -11 2 -16 6c-3 5 -5 9 -5 12v2c1 5 6 10 14 14
c-20 0 -33 3 -38 8c4 4 9 6 16 7c9 1 14 2 17 4c3 1 5 3 8 6l-8 -2c-2 0 -4 1 -5 2c-3 2 -5 6 -5 13v3c-9 -13 -15 -19 -19 -19c-1 0 -2 1 -2 3l2 14l1 6l1 6l2 8c-7 -7 -14 -14 -19 -20c-4 -5 -6 -7 -6 -8l-1 2v2c0 7 2 16 6 27c-13 -13 -22 -19 -28 -19c-3 0 -5 3 -5 9
c0 1 0 3 1 6v5l1 6c-9 -17 -17 -28 -25 -31v5c0 5 2 12 6 20c3 5 6 11 8 16l1 3l1 3l1 2v1l-3 -3l-3 -4c-3 -3 -7 -7 -10 -11c-6 -8 -11 -13 -16 -15v-1c1 0 2 4 3 11l1 6l1 8c1 6 1 12 2 17c-6 -6 -12 -9 -18 -9h-2c-6 1 -9 5 -10 13c0 5 3 12 8 19c6 7 9 13 9 18
c-13 -7 -22 -12 -25 -13c-1 -1 -4 -1 -9 -1s-8 2 -10 6c-1 1 -1 3 -1 7c0 5 3 11 9 18c7 8 14 13 22 14l-7 -1h-6c-3 -1 -6 -1 -7 -1c-11 0 -18 4 -19 11v2c0 6 4 11 12 15l2 1l2 1l7 3l5 2l4 2c-16 7 -24 13 -24 17c0 1 0 1 1 2s13 5 35 12l-1 1l-1 2c-2 1 -4 3 -6 4l-3 3
l-3 3l-3 2c-4 5 -6 10 -6 13s0 5 1 6s2 1 5 1s9 -2 18 -5s15 -5 18 -5h3c-1 3 -6 10 -15 22c-3 5 -4 8 -4 11c0 4 2 6 7 6h1c7 0 13 -4 20 -13c9 -11 15 -17 18 -18c-12 55 -20 82 -23 82l-1 -1c16 -9 32 -33 49 -73c-7 21 -11 43 -12 68l-1 6v5c0 15 3 23 8 23h2l3 -1h-1
v-1c0 -5 7 -24 21 -58l1 -3l1 -3c1 -2 2 -4 3 -7c2 -7 5 -14 8 -22c7 -12 11 -24 13 -36c-11 43 -16 82 -16 115c0 35 7 56 21 65c7 -5 10 -15 10 -31v-8c0 -5 0 -9 -1 -11l-1 -5v-11c1 -9 3 -23 6 -41l3 -13l2 -12l1 -9l1 -6c0 73 10 125 30 157c6 -3 9 -12 9 -29
c0 -9 -1 -21 -3 -35c-6 -45 -9 -69 -9 -74v-1c0 1 0 3 1 4l2 6l2 10l3 11l3 14l4 15c3 9 5 17 7 22c13 41 25 61 37 61c1 0 2 0 3 -1c-1 -16 -7 -38 -20 -66s-20 -51 -22 -68c9 27 21 51 38 74c21 29 44 46 68 51c-1 -14 -21 -38 -60 -72c-23 -37 -35 -74 -35 -111v-13l1 -7
c1 -10 4 -19 8 -27c9 48 36 98 80 150c21 25 42 47 64 65h11c-27 -15 -53 -43 -78 -85c36 26 78 39 125 40l-3 -11c-81 -2 -130 -32 -147 -90c-5 -13 -7 -30 -7 -49c0 -25 5 -55 15 -88l4 -2l2 -2c9 -9 19 -28 31 -58c0 5 3 10 8 15c5 4 11 6 16 6h2v-1l17 14
c-7 -6 -12 -11 -14 -14h3l2 -1h1c5 3 7 6 7 9v-1l-2 -6l6 4l-8 -6l1 -1l8 4l-7 -5h1c3 1 6 4 9 7c-1 -3 -3 -5 -7 -8l17 2c1 -1 2 -2 2 -3v-1l-2 -2h6c1 0 1 0 1 -1s0 -2 -1 -3c2 0 3 -1 3 -3v-3c5 0 7 -1 8 -4v-2c0 -1 -1 -3 -3 -5c-4 -4 -6 -7 -6 -10v-1l2 -4l2 -4l2 -5
l2 -4c5 -5 7 -8 8 -9l1 1v-1c1 1 2 1 3 1c6 0 11 -3 16 -10c7 -7 11 -16 13 -28c1 -2 1 -6 1 -12c0 -9 -2 -17 -6 -23l1 -7v-6c1 -4 1 -7 1 -8zM430 507l-321 -201l52 105l-121 100l366 230v-89l-86 -54zM262 562l-17 -11l-5 -3l71 -59l11 23zM242 461l-61 50l-22 -14
l71 -59z" />
    <glyph glyph-name=".null" horiz-adv-x="1231" 
 />
    <glyph glyph-name=".null" horiz-adv-x="1231" 
 />
    <glyph glyph-name="nonmarkingreturn" horiz-adv-x="508" 
 />
    <glyph glyph-name="space" unicode=" " horiz-adv-x="378" 
 />
    <glyph glyph-name="space" unicode="&#xa0;" horiz-adv-x="378" 
 />
    <glyph glyph-name="exclam" unicode="!" horiz-adv-x="462" 
d="M113 318c28 16 58 24 89 24s61 -8 89 -24c27 -17 49 -39 66 -66s25 -56 25 -88c0 -53 -17 -97 -52 -132s-78 -53 -128 -53c-33 0 -64 8 -91 24c-28 16 -50 38 -66 67s-24 61 -24 94s8 62 25 89c17 28 39 50 67 65zM362 443h-312l-50 977h412z" />
    <glyph glyph-name="quotedbl" unicode="&#x22;" horiz-adv-x="670" 
d="M620 858h-245v561h245v-561zM245 858h-245v561h245v-561z" />
    <glyph glyph-name="numbersign" unicode="#" horiz-adv-x="1066" 
d="M795 604h160l-8 -196h-177l-55 -408h-205l56 408h-187l-55 -408h-205l56 408h-175l9 196h194l33 240h-174l8 196h193l55 379h205l-56 -379h187l55 379h205l-51 -379h153l-8 -196h-176zM594 604l33 240h-186l-33 -240h186z" />
    <glyph glyph-name="dollar" unicode="$" horiz-adv-x="831" 
d="M297 1320v63h237v-63c23 -5 43 -12 61 -19c59 -24 113 -59 162 -106l-148 -212c-36 34 -67 58 -94 73c-27 14 -58 21 -95 21c-26 0 -50 -8 -73 -25c-24 -17 -36 -38 -36 -64c0 -37 27 -68 80 -91c74 -32 131 -55 170 -70c59 -23 110 -60 155 -112c43 -53 65 -129 65 -228
c0 -128 -39 -227 -116 -296c-39 -35 -83 -61 -131 -78v-80h-237v59c-39 5 -80 16 -123 31c-65 23 -123 60 -174 109l164 232c51 -65 117 -98 198 -98c31 0 61 9 90 26s43 42 43 75c0 38 -27 69 -81 93l-42 17l-42 18l-87 36c-60 24 -111 61 -154 112s-65 126 -65 223
c0 75 19 141 56 198c37 56 85 99 144 128c23 13 48 22 73 28z" />
    <glyph glyph-name="percent" unicode="%" horiz-adv-x="1216" 
d="M483 915c-55 -55 -122 -83 -200 -83s-145 28 -200 83s-83 122 -83 200c0 79 28 146 83 201s121 82 200 82s145 -27 200 -82s83 -122 83 -201c0 -78 -28 -145 -83 -200zM170 1115c0 -31 11 -58 33 -80s49 -33 80 -33s58 11 80 33s33 49 33 80s-11 58 -33 80s-49 33 -80 33
s-58 -11 -80 -33s-33 -49 -33 -80zM1083 107c-55 -55 -122 -83 -200 -83s-145 28 -200 83s-83 122 -83 200c0 79 28 146 83 201s121 82 200 82s145 -27 200 -82s83 -122 83 -201c0 -78 -28 -145 -83 -200zM770 307c0 -31 11 -58 33 -80s49 -33 80 -33s58 11 80 33
s33 49 33 80s-11 58 -33 80s-49 33 -80 33s-58 -11 -80 -33s-33 -49 -33 -80zM988 1419l-713 -1419h-159l710 1419h162z" />
    <glyph glyph-name="ampersand" unicode="&#x26;" horiz-adv-x="1186" 
d="M1069 509l-168 191c-31 -37 -79 -85 -145 -145l-118 134l-87 97c165 125 213 255 146 391c-40 82 -114 133 -223 154c-60 11 -116 11 -167 -2c-55 -12 -99 -34 -134 -67c-61 -56 -90 -129 -87 -220c3 -79 29 -153 79 -224c-155 -149 -201 -302 -138 -461
c41 -106 120 -182 237 -228c122 -47 236 -46 341 5c41 20 80 42 117 67l27 -31l27 -32l57 -67l196 168c-2 3 -6 8 -13 15l-8 9l-9 11l-37 43l-37 43c19 19 38 40 56 61c53 55 83 85 88 88zM370 1023c-7 13 -10 26 -10 40c0 21 5 36 16 47s26 17 43 17c16 0 29 -6 40 -19
s17 -29 17 -47c0 -21 -4 -40 -13 -57s-25 -34 -47 -50c-22 29 -37 52 -46 69zM314 651l224 -243c-14 -16 -32 -30 -54 -41c-22 -12 -45 -19 -70 -21c-40 -4 -75 7 -105 34s-47 64 -52 112c-3 31 2 62 13 95c11 30 25 51 44 64z" />
    <glyph glyph-name="quotesingle" unicode="'" horiz-adv-x="295" 
d="M245 858h-245v561h245v-561z" />
    <glyph glyph-name="parenleft" unicode="(" horiz-adv-x="615" 
d="M402 1602l163 -156c-69 -75 -128 -158 -178 -250c-50 -93 -88 -190 -114 -292c-26 -103 -39 -204 -39 -304c0 -78 7 -159 21 -242c14 -87 34 -166 61 -237c27 -76 60 -148 101 -215c41 -70 90 -134 146 -193l-159 -162c-127 137 -225 291 -296 464
c-72 175 -108 352 -108 530c0 131 15 260 44 389c29 125 74 244 135 357c59 111 133 215 223 311z" />
    <glyph glyph-name="parenright" unicode=")" horiz-adv-x="615" 
d="M2 1440l159 162c82 -88 154 -186 215 -294c60 -107 107 -221 140 -340c33 -117 49 -237 49 -360c0 -99 -8 -196 -24 -291c-16 -93 -41 -185 -74 -278c-33 -90 -75 -176 -126 -257c-51 -83 -111 -160 -178 -231l-163 156c53 58 100 120 141 186c40 65 75 134 104 207
s50 147 64 223c15 73 22 150 22 230c0 81 -7 163 -20 246c-13 79 -33 156 -60 231c-26 73 -60 145 -103 218c-42 71 -91 135 -146 192z" />
    <glyph glyph-name="asterisk" unicode="*" horiz-adv-x="693" 
d="M40 1281l97 97h-137v153h137l-99 99l107 108l100 -100v141h152v-141l98 98l108 -108l-97 -97h137v-153h-138l100 -100l-108 -107l-100 100v-141h-152v140l-97 -97z" />
    <glyph glyph-name="plus" unicode="+" horiz-adv-x="1072" 
d="M628 841v394h-270v-394h-375l72 -274h303v-392h270v392h377l-71 274h-306z" />
    <glyph glyph-name="comma" unicode="," horiz-adv-x="403" 
d="M353 313v-114c-16 -168 -110 -267 -281 -297l-1 99c31 8 56 17 77 28c-37 5 -69 21 -97 48c-31 31 -48 68 -51 111v125h353z" />
    <glyph glyph-name="hyphen" unicode="-" horiz-adv-x="742" 
d="M72 567h620l-71 274h-621z" />
    <glyph glyph-name="hyphen" unicode="&#xad;" horiz-adv-x="742" 
d="M72 567h620l-71 274h-621z" />
    <glyph glyph-name="period" unicode="." horiz-adv-x="411" 
d="M92 312c28 16 58 24 89 24s61 -8 89 -24c27 -17 49 -39 66 -66s25 -56 25 -88c0 -53 -17 -97 -52 -132s-78 -53 -128 -53c-33 0 -64 8 -91 24c-28 16 -50 38 -66 67s-24 61 -24 94s8 62 25 89c17 28 39 50 67 65z" />
    <glyph glyph-name="slash" unicode="/" horiz-adv-x="705" 
d="M636 1419l-363 -1419h-269l360 1419h272z" />
    <glyph glyph-name="zero" unicode="0" horiz-adv-x="1088" 
d="M347 933c-11 -67 -17 -141 -17 -224c0 -82 6 -156 17 -222c11 -63 30 -112 58 -148c27 -36 64 -54 111 -54c129 0 193 141 193 424s-64 424 -193 424c-47 0 -84 -18 -111 -53c-27 -37 -47 -86 -58 -147zM934 1207c38 -73 65 -152 81 -237c15 -89 23 -176 23 -261
c0 -119 -15 -235 -45 -347c-30 -113 -84 -207 -161 -282c-79 -75 -185 -113 -316 -113c-98 0 -182 23 -251 68s-122 105 -161 180s-66 154 -81 237c-15 87 -23 172 -23 257s8 171 23 259c15 83 42 162 81 237s92 135 161 180c67 45 150 67 251 67s187 -23 256 -68
s123 -104 162 -177z" />
    <glyph glyph-name="one" unicode="1" horiz-adv-x="544" 
d="M164 1173l-163 4l-1 239h494v-1417l-330 -1v1175z" />
    <glyph glyph-name="two" unicode="2" horiz-adv-x="1105" 
d="M625 319h430v-319h-1055l510 643c48 64 87 123 116 176c27 49 40 99 40 152c0 49 -18 88 -54 118c-37 29 -81 44 -132 44c-45 0 -81 -14 -108 -41c-28 -28 -47 -65 -58 -111l-301 192c68 108 142 182 221 221c77 39 167 58 268 58c87 0 170 -19 248 -56
c75 -37 135 -91 180 -161c44 -71 66 -153 66 -248c0 -67 -11 -130 -34 -188c-21 -56 -49 -110 -83 -163c-35 -51 -73 -102 -115 -152l-75 -89l-33 -40l-16 -18z" />
    <glyph glyph-name="three" unicode="3" horiz-adv-x="1086" 
d="M249 1040l-243 142c56 90 129 158 218 203s186 67 292 67c84 0 160 -16 227 -49c69 -33 125 -81 167 -144c41 -65 62 -140 62 -223c0 -58 -11 -109 -32 -154c-21 -43 -56 -85 -103 -126c41 -23 76 -51 106 -85c29 -35 52 -74 69 -117c16 -43 24 -87 24 -132
c0 -79 -15 -148 -45 -205c-31 -58 -73 -105 -125 -142c-54 -37 -113 -65 -177 -82c-67 -17 -135 -26 -204 -26c-62 0 -121 9 -178 28c-60 19 -116 46 -169 81c-55 35 -101 75 -138 119l231 235c39 -49 77 -86 114 -109c38 -24 84 -36 138 -36c57 0 103 14 140 43
s55 72 55 131s-20 98 -60 118c-42 19 -97 29 -164 29h-56c-4 -1 -13 -1 -27 -1h-15l-16 -1v248h22c9 0 18 0 27 1h26l27 1c36 1 69 5 99 12s55 22 74 43s28 51 28 92c0 55 -16 95 -48 122c-33 27 -75 40 -126 40c-25 0 -47 -3 -65 -10c-17 -6 -35 -14 -52 -25
c-11 -8 -29 -23 -54 -44c-7 -5 -12 -10 -15 -13c-1 -1 -3 -2 -6 -5l-7 -7c-5 -4 -9 -8 -13 -12l-5 -4z" />
    <glyph glyph-name="four" unicode="4" horiz-adv-x="1128" 
d="M1076 560l2 287h-177v572h-332v-572h-237v572h-332l2 -861h567v-565l332 -2v569h175z" />
    <glyph glyph-name="five" unicode="5" horiz-adv-x="1028" 
d="M0 110l173 298c55 -76 135 -117 242 -123c54 0 102 21 143 62s61 94 61 159c0 69 -26 120 -78 155c-53 35 -114 52 -184 52c-86 0 -177 -19 -274 -56v762h728l1 -319h-400v-123c13 1 24 2 33 3l11 1l10 1c2 1 10 1 24 1c306 -29 469 -194 488 -496
c0 -77 -15 -149 -44 -216c-30 -65 -72 -120 -125 -165c-54 -46 -115 -81 -183 -104c-70 -23 -141 -35 -214 -35c-105 -7 -243 41 -412 143z" />
    <glyph glyph-name="six" unicode="6" horiz-adv-x="1088" 
d="M534 1421l427 1l-295 -300c-65 -69 -121 -139 -169 -211l4 -4c33 13 70 20 111 20c85 0 160 -21 225 -62c64 -43 114 -99 149 -169c35 -69 52 -147 52 -234c0 -101 -21 -192 -63 -271c-43 -79 -103 -140 -180 -183s-165 -64 -265 -64c-101 0 -193 22 -274 66
c-81 43 -144 105 -189 186s-67 175 -67 282c0 167 49 326 146 475c97 148 226 304 388 468zM425 290c29 -18 62 -27 97 -27c52 0 96 19 132 57s54 84 54 138c0 35 -8 68 -24 99s-38 55 -67 73s-60 27 -95 27c-55 0 -100 -19 -137 -58s-56 -86 -56 -141c0 -35 9 -68 26 -97
c17 -31 41 -54 70 -71z" />
    <glyph glyph-name="seven" unicode="7" horiz-adv-x="1001" 
d="M111 2l387 1101h-498l3 316h948l-462 -1414z" />
    <glyph glyph-name="eight" unicode="8" horiz-adv-x="1076" 
d="M504 612c-70 -36 -116 -68 -139 -97s-35 -61 -35 -95c0 -46 17 -85 50 -116c33 -32 73 -48 120 -48c58 0 105 14 142 43s55 70 55 125c0 30 -10 59 -31 88c-22 30 -76 63 -162 100zM624 974c17 23 26 50 26 81c0 72 -50 108 -150 108c-38 0 -69 -12 -94 -37
c-26 -25 -39 -55 -39 -90c0 -32 49 -79 147 -141c57 29 93 56 110 79zM180 1351c46 35 98 60 157 77c59 16 122 24 188 24c129 0 237 -37 324 -110c87 -74 130 -177 130 -308c0 -56 -14 -111 -42 -164c-27 -53 -64 -93 -111 -122c69 -47 119 -98 152 -151
c32 -54 48 -121 48 -202c0 -66 -15 -127 -44 -182c-28 -53 -67 -98 -118 -136c-48 -35 -104 -63 -167 -82c-59 -19 -121 -28 -187 -28c-87 0 -170 17 -249 51c-79 33 -142 83 -189 148c-48 65 -72 142 -72 229c0 68 18 132 55 193c37 60 84 109 142 147
c-107 77 -160 176 -160 297c0 73 12 136 37 187c25 52 60 96 106 132z" />
    <glyph glyph-name="nine" unicode="9" horiz-adv-x="1088" 
d="M492 -1l-415 3l296 295c67 71 123 139 168 206l-4 4c-29 -13 -66 -19 -111 -19c-87 0 -161 20 -224 61c-65 41 -114 97 -149 166s-53 146 -53 229c0 101 21 189 64 266c42 77 102 137 180 179c77 42 165 63 264 63c103 0 194 -21 275 -64s143 -104 188 -183
s67 -171 67 -277c0 -163 -49 -319 -146 -466c-93 -143 -227 -297 -400 -463zM613 1113c-29 17 -62 26 -97 26c-52 0 -96 -19 -132 -56s-54 -82 -54 -135c0 -33 8 -66 24 -97s38 -55 67 -72s61 -26 95 -26c55 0 100 19 137 57c37 39 56 85 56 138c0 35 -9 67 -26 96
s-41 52 -70 69z" />
    <glyph glyph-name="colon" unicode=":" horiz-adv-x="411" 
d="M92 371c28 16 58 24 89 24s61 -8 89 -24c27 -17 49 -39 66 -66s25 -56 25 -88c0 -53 -17 -97 -52 -132s-78 -53 -128 -53c-33 0 -64 8 -91 24c-28 16 -50 38 -66 67s-24 61 -24 94s8 62 25 89c17 28 39 50 67 65zM92 941c28 16 58 24 89 24s61 -8 89 -24
c27 -17 49 -39 66 -66s25 -56 25 -88c0 -53 -17 -97 -52 -132s-78 -53 -128 -53c-33 0 -64 8 -91 24c-28 16 -50 38 -66 67s-24 61 -24 94s8 62 25 89c17 28 39 50 67 65z" />
    <glyph glyph-name="semicolon" unicode=";" horiz-adv-x="420" 
d="M101 945c28 16 58 24 89 24s61 -8 89 -24c27 -17 49 -39 66 -66s25 -56 25 -88c0 -53 -17 -97 -52 -132s-78 -53 -128 -53c-33 0 -64 8 -91 24c-28 16 -50 38 -66 67s-24 61 -24 94s8 62 25 89c17 28 39 50 67 65zM353 313v-114c9 -168 -84 -267 -281 -297l-1 99
c31 8 56 17 77 28c-37 5 -69 21 -97 48c-31 31 -48 68 -51 111v125h353z" />
    <glyph glyph-name="semicolon" unicode="&#x37e;" horiz-adv-x="420" 
d="M101 945c28 16 58 24 89 24s61 -8 89 -24c27 -17 49 -39 66 -66s25 -56 25 -88c0 -53 -17 -97 -52 -132s-78 -53 -128 -53c-33 0 -64 8 -91 24c-28 16 -50 38 -66 67s-24 61 -24 94s8 62 25 89c17 28 39 50 67 65zM353 313v-114c9 -168 -84 -267 -281 -297l-1 99
c31 8 56 17 77 28c-37 5 -69 21 -97 48c-31 31 -48 68 -51 111v125h353z" />
    <glyph glyph-name="less" unicode="&#x3c;" horiz-adv-x="1297" 
d="M616 715l626 -281v-316l-1247 603l1247 587v-315z" />
    <glyph glyph-name="equal" unicode="=" horiz-adv-x="917" 
d="M72 727h795l-71 274h-796zM72 337h795l-71 274h-796z" />
    <glyph glyph-name="greater" unicode="&#x3e;" horiz-adv-x="1297" 
d="M-5 434l626 281l-626 278v315l1247 -587l-1247 -603v316z" />
    <glyph glyph-name="question" unicode="?" horiz-adv-x="962" 
d="M246 1067l-246 168c35 53 76 98 123 133c46 35 98 61 156 80c57 18 117 27 178 27c59 0 116 -10 173 -29c55 -19 104 -47 146 -82c42 -36 75 -79 100 -129c24 -51 36 -106 36 -166c0 -76 -14 -138 -41 -185s-64 -88 -111 -124l-37 -28l-37 -28c-29 -23 -49 -41 -58 -56
c-14 -19 -21 -42 -21 -70v-115h-312v149c0 77 12 137 36 180c23 43 56 78 97 105l34 23l33 22c22 15 39 31 51 48c11 17 17 40 17 67c0 33 -15 62 -44 85s-62 34 -99 34c-69 0 -127 -36 -174 -109zM359 318c28 16 58 24 89 24s61 -8 89 -24c27 -17 49 -39 66 -66
s25 -56 25 -88c0 -53 -17 -97 -52 -132s-78 -53 -128 -53c-33 0 -64 8 -91 24c-28 16 -50 38 -66 67s-24 61 -24 94s8 62 25 89c17 28 39 50 67 65z" />
    <glyph glyph-name="at" unicode="@" horiz-adv-x="2301" 
d="M1362 551v-3c-1 -68 -25 -126 -73 -174s-106 -72 -174 -72c-69 0 -127 24 -175 73c-48 48 -72 106 -72 174c0 69 24 127 72 175s106 72 175 72c67 0 125 -24 174 -71c48 -48 72 -106 73 -174zM89 988c-59 -141 -89 -286 -89 -437s30 -297 89 -438
c56 -133 136 -253 241 -358s225 -185 358 -241c141 -59 287 -89 438 -89c203 0 392 51 567 154l-137 270c-133 -81 -277 -122 -430 -122c-111 0 -217 22 -320 65c-99 42 -186 101 -262 177s-135 163 -177 261c-43 104 -65 211 -65 321c0 109 22 216 65 320
c42 98 101 185 177 261s163 135 262 177c103 43 209 65 320 65c109 0 216 -22 320 -65c98 -42 185 -101 261 -177s135 -163 177 -261c43 -104 65 -211 65 -320c4 -35 2 -68 -7 -99c-7 -28 -20 -51 -37 -68c-21 -21 -49 -31 -86 -31c-72 0 -120 32 -145 97
c-12 32 -17 64 -15 96l2 539h-299v-47c-80 39 -162 59 -247 59c-77 0 -148 -14 -213 -43c-67 -28 -125 -67 -174 -118c-51 -49 -90 -107 -118 -174c-29 -65 -43 -136 -43 -213c0 -76 14 -147 43 -213c28 -65 67 -123 118 -174c50 -51 108 -90 174 -117
c65 -29 136 -43 213 -43c139 0 260 46 363 138c65 -76 155 -114 269 -114c148 0 268 47 361 142c95 97 143 225 143 383c0 154 -29 300 -88 437c-57 135 -138 254 -242 358s-223 185 -358 242c-137 59 -283 88 -437 88c-155 0 -301 -29 -438 -88
c-135 -57 -254 -138 -358 -242c-103 -103 -184 -223 -241 -358z" />
    <glyph glyph-name="A" unicode="A" horiz-adv-x="1613" 
d="M921 514h-279l140 252zM1065 252l139 -252h359l-602 1093l-179 326l-180 -326l-602 -1093h359l139 252h567z" />
    <glyph glyph-name="B" unicode="B" horiz-adv-x="1086" 
d="M444 1141h-79v-287h92c57 0 99 13 128 39c29 25 43 61 43 108c0 50 -18 86 -54 108c-37 21 -81 32 -130 32zM0 0v1419h417c104 0 200 -12 288 -35c86 -23 156 -63 209 -118s79 -128 79 -219c0 -70 -17 -130 -52 -181c-35 -53 -82 -91 -141 -116v-5c35 -13 66 -31 95 -54
s54 -49 75 -79c21 -28 37 -61 49 -99c11 -38 17 -77 17 -118c0 -119 -44 -214 -132 -286c-89 -73 -223 -109 -402 -109h-502zM457 575h-92v-296h97c139 0 209 48 209 145c0 61 -19 101 -56 121s-89 30 -158 30z" />
    <glyph glyph-name="C" unicode="C" horiz-adv-x="1252" 
d="M1202 194l-229 237c-28 -34 -57 -61 -86 -81c-57 -39 -120 -59 -187 -59s-130 20 -187 59s-103 91 -137 156s-51 133 -51 204s17 139 50 204c34 65 80 117 137 156c59 39 122 59 188 59s129 -20 188 -59c25 -16 52 -42 83 -77l229 237c-43 47 -93 89 -150 124
c-107 66 -223 99 -350 99c-126 0 -243 -33 -350 -99c-107 -67 -193 -157 -256 -270s-94 -237 -94 -374c0 -136 31 -260 94 -373c63 -112 148 -202 256 -269c107 -66 224 -99 350 -99c127 0 243 33 350 99c57 35 107 77 152 126z" />
    <glyph glyph-name="D" unicode="D" horiz-adv-x="1307" 
d="M507 1h-507v1419h507c104 0 201 -18 292 -54c89 -35 168 -84 239 -149c68 -64 122 -140 161 -227c39 -86 58 -179 58 -280c0 -100 -19 -193 -58 -278c-39 -87 -93 -163 -161 -227c-69 -64 -149 -114 -240 -150s-188 -54 -291 -54zM475 1118h-113v-818h113
c57 0 112 11 164 33c51 22 96 52 135 91s69 83 90 132c21 47 31 99 31 154c0 51 -11 103 -32 156c-22 50 -51 93 -88 130s-82 66 -135 89c-53 22 -108 33 -165 33z" />
    <glyph glyph-name="E" unicode="E" horiz-adv-x="951" 
d="M899 299l2 -299h-901v1419h859l-3 -301h-508v-246h281l81 -299h-362v-274h551z" />
    <glyph glyph-name="F" unicode="F" horiz-adv-x="909" 
d="M348 1l-348 1v1417h859v-301h-511v-245h281l81 -299h-362v-573z" />
    <glyph glyph-name="G" unicode="G" horiz-adv-x="1394" 
d="M1303 1246l-205 -254c-45 41 -96 72 -153 95c-56 23 -115 34 -177 34s-118 -10 -168 -31c-52 -21 -97 -50 -134 -87c-37 -38 -66 -83 -87 -134c-21 -49 -31 -105 -31 -167c0 -86 20 -161 60 -224c39 -63 92 -112 161 -145c68 -34 143 -51 226 -51c33 0 70 4 111 12
c40 8 70 22 89 41v205h-139l-125 299h613v-733c-25 -15 -65 -34 -121 -56c-53 -20 -103 -36 -148 -47c-41 -11 -95 -22 -160 -31c-58 -8 -113 -12 -165 -12c-135 0 -260 33 -375 99c-115 67 -207 157 -274 270s-101 238 -101 373c0 134 34 259 101 374
c67 113 159 203 274 270c115 66 240 99 375 99c64 0 131 -8 202 -23c67 -15 131 -38 191 -69c62 -31 115 -67 160 -107z" />
    <glyph glyph-name="H" unicode="H" horiz-adv-x="1196" 
d="M348 0v580h450v-580h348v1419h-348v-518h-450v518h-348v-1419h348z" />
    <glyph glyph-name="I" unicode="I" horiz-adv-x="398" 
d="M0 1v1417h348v-1418z" />
    <glyph glyph-name="J" unicode="J" horiz-adv-x="754" 
d="M704 1421h-337v-1353h-1c-2 -16 -4 -30 -7 -43c-2 -10 -4 -18 -6 -25c-21 -63 -57 -118 -108 -163c-50 -45 -110 -77 -181 -96l-3 -1h-4l-7 -1l-6 -1l-22 -4l-22 -3v-304c54 3 104 10 149 21c127 31 238 89 334 175s161 186 196 299c12 39 20 82 23 131h2v1368z" />
    <glyph glyph-name="K" unicode="K" horiz-adv-x="1175" 
d="M749 1l-416 636v-636h-333v1419h333v-677l414 677h375l-448 -732l451 -687h-376z" />
    <glyph glyph-name="L" unicode="L" horiz-adv-x="959" 
d="M909 324l-93 -324h-816v1418l348 1v-1095h561z" />
    <glyph glyph-name="M" unicode="M" horiz-adv-x="1372" 
d="M1325 1417l-674 -554l-648 554v-1418h370l1 670l277 -274l297 285l1 -680l376 -1v1418z" />
    <glyph glyph-name="N" unicode="N" horiz-adv-x="1302" 
d="M1252 1417l-4 -1418l-899 735l1 -731h-350l4 1416l900 -655v655z" />
    <glyph glyph-name="O" unicode="O" horiz-adv-x="1549" 
d="M402 913c-36 -65 -54 -133 -54 -204s18 -139 55 -204c37 -66 86 -118 146 -157c61 -39 128 -59 201 -59c72 0 139 20 200 59s110 92 147 157c36 65 54 133 54 204s-18 139 -54 204s-85 117 -146 156c-63 39 -130 59 -201 59c-73 0 -140 -20 -201 -59
c-62 -39 -111 -91 -147 -156zM1398 1083c67 -115 101 -240 101 -374c0 -135 -34 -260 -101 -373c-67 -114 -158 -204 -273 -270s-240 -99 -375 -99s-260 33 -375 99c-115 67 -207 157 -274 270s-101 238 -101 373c0 134 34 259 101 374c67 113 159 203 274 270
c115 66 240 99 375 99s260 -33 375 -99c115 -67 206 -157 273 -270z" />
    <glyph glyph-name="P" unicode="P" horiz-adv-x="1046" 
d="M349 0h-349v1419h424c96 0 177 -7 242 -22c70 -15 129 -40 176 -74c49 -35 87 -82 114 -141c27 -58 40 -130 40 -217c0 -71 -13 -134 -40 -188c-27 -56 -64 -103 -111 -142s-104 -70 -169 -91c-67 -21 -136 -32 -205 -32h-122v-512zM449 1118h-100v-305h100
c64 0 113 13 148 40c34 26 51 64 51 114c0 49 -17 86 -51 112c-35 26 -84 39 -148 39z" />
    <glyph glyph-name="Q" unicode="Q" horiz-adv-x="1549" 
d="M1151 723c0 -71 -18 -140 -54 -205c-37 -65 -86 -117 -147 -156c-63 -39 -130 -59 -200 -59c-73 0 -140 20 -201 59s-110 91 -146 156c-37 65 -55 133 -55 205c0 71 18 139 54 204s85 117 146 156c63 39 131 59 202 59s138 -20 201 -59c61 -38 109 -90 146 -156
c36 -66 54 -134 54 -204zM372 81l-265 -96l18 -64l6 -16c116 -271 311 -357 584 -257l205 76l-1 2c82 21 137 -1 164 -67l-1 -1l1 -1l1 -2l2 -5l1 -4l1 -4h1c7 -27 9 -50 4 -68l284 104c-9 35 -14 56 -17 64l-6 16c-70 163 -169 259 -296 288c27 12 49 23 66 34
c116 67 207 157 274 269c67 115 101 240 101 374c0 136 -34 261 -101 374c-68 114 -159 204 -274 270s-239 99 -374 99s-260 -33 -376 -99c-115 -67 -206 -157 -273 -270c-67 -115 -101 -240 -101 -374s34 -259 101 -374c67 -113 157 -202 271 -268zM685 -16l-120 -45l1 -2
c-82 -21 -137 1 -164 67l1 1l-2 4l-2 4l-1 4l-1 4h-1c-6 16 -8 33 -7 51c90 -51 189 -80 296 -88z" />
    <glyph glyph-name="R" unicode="R" horiz-adv-x="1137" 
d="M348 1118v-397c59 0 107 7 146 21c38 13 68 36 89 67s31 70 31 119c0 73 -22 123 -66 150c-45 27 -111 40 -200 40zM348 3h-348v1416h395c111 0 210 -15 297 -44c85 -29 151 -76 199 -141c47 -65 71 -150 71 -253c0 -76 -21 -149 -62 -218s-96 -116 -165 -142l352 -620
h-407l-328 636h-4v-634z" />
    <glyph glyph-name="S" unicode="S" horiz-adv-x="972" 
d="M891 1288l-171 -244c-41 39 -77 66 -109 83c-33 17 -72 26 -116 26c-33 0 -63 -10 -92 -31c-30 -21 -45 -48 -45 -82c0 -48 33 -86 98 -114c55 -24 124 -52 205 -83c71 -28 132 -72 184 -133c51 -61 77 -151 77 -270c0 -152 -46 -269 -137 -350
c-91 -82 -206 -123 -347 -123c-81 0 -160 14 -236 42c-77 28 -144 70 -202 126l188 268c60 -76 139 -114 237 -114c39 0 77 11 113 33c35 21 53 53 53 94c0 49 -33 87 -99 116c-20 9 -54 24 -102 43l-52 21l-53 22c-70 29 -131 73 -183 133c-51 59 -76 146 -76 263
c0 89 22 167 66 234c43 67 100 117 171 152c69 35 143 52 223 52c73 0 145 -14 216 -42c71 -29 134 -69 189 -122z" />
    <glyph glyph-name="T" unicode="T" horiz-adv-x="1095" 
d="M360 0v1096h-273l-87 323h961l84 -323h-337v-1096h-348z" />
    <glyph glyph-name="U" unicode="U" horiz-adv-x="1216" 
d="M818 1419l348 -1v-926c0 -107 -26 -201 -78 -280c-52 -80 -124 -141 -215 -182c-92 -42 -197 -63 -316 -63c-111 0 -209 18 -292 54c-84 36 -149 91 -195 166c-47 75 -70 168 -70 280v952l349 -1v-851c0 -57 6 -104 19 -143c13 -42 36 -75 68 -98c31 -25 74 -37 130 -37
c103 0 171 30 204 91c32 61 48 149 48 263v776z" />
    <glyph glyph-name="V" unicode="V" horiz-adv-x="1424" 
d="M687 676l-371 742h-316l687 -1475l687 1475h-313z" />
    <glyph glyph-name="W" unicode="W" horiz-adv-x="1886" 
d="M0 1419h350l201 -682l354 678l348 -690l213 694h370l-534 -1450l-393 700l-420 -700z" />
    <glyph glyph-name="X" unicode="X" horiz-adv-x="1416" 
d="M360 -1h-360l475 735l-461 683l383 -1l287 -418l282 418l400 2l-484 -679l481 -741l-386 1l-301 457z" />
    <glyph glyph-name="Y" unicode="Y" horiz-adv-x="1300" 
d="M814 657l436 762h-404l-219 -419l-220 419h-407l446 -765v-654h368v657z" />
    <glyph glyph-name="Z" unicode="Z" horiz-adv-x="1298" 
d="M0 0l678 1096h-485l-101 323h1156l-674 -1095h614l2 -324h-1190z" />
    <glyph glyph-name="bracketleft" unicode="[" horiz-adv-x="475" 
d="M0 1740h1v2l424 2v-189h-199v-1676h199v-185l-424 -3v3h-1v185h1v1676h-1v185z" />
    <glyph glyph-name="backslash" unicode="\" horiz-adv-x="705" 
d="M367 0l-363 1419h272l360 -1419h-269z" />
    <glyph glyph-name="bracketright" unicode="]" horiz-adv-x="475" 
d="M424 1740h1v-185h-1v-1676h1v-185h-1v-3l-424 3v185h199v1676h-199v189l424 -2v-2z" />
    <glyph glyph-name="asciicircum" unicode="^" horiz-adv-x="734" 
d="M684 840h-150l-193 310l-191 -310h-150l342 520z" />
    <glyph glyph-name="underscore" unicode="_" horiz-adv-x="720" 
d="M670 -37h-670v281h670v-281z" />
    <glyph glyph-name="grave" unicode="`" horiz-adv-x="489" 
d="M0 1942l218 -403h221l-144 403h-295z" />
    <glyph glyph-name="A" unicode="a" 
d="M586 775c47 0 91 -11 132 -34c40 -23 73 -54 99 -94c25 -39 37 -82 37 -129c0 -71 -27 -132 -80 -183s-115 -76 -188 -76c-72 0 -134 25 -187 76s-80 112 -80 183c0 47 12 90 37 129c26 40 59 71 99 94c41 23 84 34 131 34zM855 30v-30l317 -3l1 521
c0 77 -16 150 -47 218c-31 65 -75 123 -130 174c-53 49 -115 87 -188 114c-71 27 -145 40 -222 40c-76 0 -150 -14 -222 -41c-71 -26 -133 -64 -188 -113s-98 -107 -129 -174c-31 -68 -47 -141 -47 -218c0 -103 27 -197 81 -281c53 -83 125 -148 216 -196
c91 -47 188 -71 289 -71c76 0 150 14 222 41c6 2 22 8 47 19z" />
    <glyph glyph-name="B" unicode="b" 
d="M586 256c72 0 135 26 188 77s80 113 80 184c0 47 -12 89 -37 128c-26 40 -59 71 -99 94c-41 23 -85 35 -132 35c-46 0 -90 -12 -131 -35c-40 -23 -73 -54 -99 -94c-25 -39 -37 -81 -37 -128c0 -71 27 -133 80 -184s116 -77 187 -77zM0 510v915l319 1v-422l23 10l23 10
c72 26 146 39 221 39c76 0 150 -13 222 -39c71 -26 134 -64 189 -115c55 -50 98 -108 129 -175c31 -68 47 -140 47 -217c0 -80 -15 -153 -46 -218c-31 -67 -75 -126 -130 -176c-58 -52 -121 -90 -189 -115c-71 -27 -145 -41 -222 -41c-101 0 -198 24 -289 72
c-91 47 -163 112 -216 196c-53 82 -80 174 -81 275z" />
    <glyph glyph-name="C" unicode="c" horiz-adv-x="1015" 
d="M954 941l-166 -226c-29 24 -61 42 -94 54c-35 12 -72 18 -112 18c-73 0 -135 -24 -186 -71s-77 -106 -77 -176c0 -55 11 -104 33 -147c21 -43 53 -78 95 -103c41 -26 88 -39 141 -39c79 0 146 25 202 75l175 -222c-23 -25 -59 -49 -106 -71c-45 -21 -92 -36 -142 -46
c-49 -10 -94 -15 -135 -15c-116 0 -218 24 -307 73s-157 113 -204 194s-71 168 -71 261c0 85 14 162 43 230c29 69 69 129 121 180c51 49 112 87 185 115c73 27 150 41 233 41c67 0 133 -11 199 -32c65 -22 123 -53 173 -93z" />
    <glyph glyph-name="D" unicode="d" 
d="M817 645c-26 40 -59 71 -99 94c-41 23 -85 35 -131 35c-47 0 -91 -12 -132 -35c-40 -23 -73 -54 -99 -94c-25 -39 -37 -81 -37 -128c0 -71 27 -133 80 -184s116 -77 188 -77c71 0 134 26 187 77s80 113 80 184c0 47 -12 89 -37 128zM1173 1425v-915
c-1 -101 -28 -193 -81 -275c-53 -84 -125 -149 -216 -196c-91 -48 -187 -72 -289 -72c-77 0 -151 14 -222 41c-68 25 -131 63 -189 115c-55 50 -99 109 -130 176c-31 65 -46 138 -46 218c0 77 16 149 47 217c31 67 74 125 129 175c55 51 118 89 189 115c72 26 146 39 222 39
c75 0 149 -13 221 -39l23 -10l23 -10v422z" />
    <glyph glyph-name="E" unicode="e" horiz-adv-x="1174" 
d="M758 679h-392c22 26 45 47 70 62c39 23 81 34 126 34s87 -11 126 -34c25 -15 48 -36 70 -62zM774 1024c-67 27 -138 40 -212 40s-145 -13 -213 -40c-67 -26 -127 -64 -180 -115c-53 -49 -94 -107 -124 -174c-30 -66 -45 -138 -45 -216c0 -104 26 -198 78 -281
c51 -83 120 -149 207 -197c85 -47 178 -71 277 -71c74 0 145 13 212 40c52 21 102 52 150 91l-172 246l-2 -3l-3 -3l-3 -4l-2 -2c-51 -51 -111 -76 -180 -76s-129 25 -180 76c-41 41 -65 89 -73 145h688v2h124l2 17l1 6v14c0 77 -15 149 -45 216c-30 68 -71 126 -124 175
s-113 87 -181 114z" />
    <glyph glyph-name="F" unicode="f" horiz-adv-x="749" 
d="M-5 1025h177c0 124 21 219 64 286s103 115 180 146c75 31 167 46 276 46l2 -296c-81 1 -135 -11 -162 -35c-27 -25 -41 -74 -41 -147h125l71 -274h-196v-750h-319v750h-105z" />
    <glyph glyph-name="G" unicode="g" horiz-adv-x="1167" 
d="M574 255c69 0 130 26 183 77c52 51 78 112 78 183c0 45 -12 88 -36 128c-24 39 -56 71 -96 94c-41 23 -84 34 -129 34c-46 0 -88 -11 -127 -34c-40 -23 -72 -54 -97 -94c-24 -40 -36 -83 -36 -128c0 -71 26 -132 78 -183c53 -51 114 -77 182 -77zM1117 509l-1 -542v-74
c0 -131 -47 -244 -140 -337c-44 -44 -102 -78 -174 -103c-68 -24 -135 -36 -202 -36h-56c-151 3 -272 49 -363 139c-60 61 -97 116 -110 163l305 177c3 -52 24 -97 63 -134s85 -55 138 -55c42 0 80 12 115 36c33 23 58 53 73 90l1 4l2 5l2 7l2 7c2 5 4 13 5 24v3l1 3l1 4v6
h1v105l-8 -4l-8 -3c-68 -27 -138 -41 -210 -41c-97 0 -188 24 -273 73c-85 47 -153 113 -204 199c-51 85 -77 180 -77 285c0 80 15 153 45 220c29 67 70 127 122 178c52 50 111 88 178 115c69 27 138 41 209 41c124 0 216 -16 276 -48c191 -82 287 -251 287 -507z" />
    <glyph glyph-name="H" unicode="h" horiz-adv-x="1009" 
d="M0 1419l320 1v-456c31 31 69 56 114 74c46 18 93 27 140 27c257 0 385 -150 385 -451v-614l-320 -1v593c0 61 -14 107 -42 138s-67 46 -118 46c-49 0 -88 -15 -116 -46c-29 -31 -43 -77 -43 -138v-592l-320 -2v1421z" />
    <glyph glyph-name="I" unicode="i" horiz-adv-x="382" 
d="M2 1022l319 1v-1025h-319v1024zM240 1168c-25 -15 -53 -23 -84 -23s-58 7 -83 22s-45 35 -60 61c-15 27 -23 56 -23 85c0 31 7 59 22 84c16 26 36 46 61 61s52 22 83 22s59 -7 84 -22s45 -36 60 -61s22 -53 22 -84c0 -32 -7 -60 -22 -85s-35 -45 -60 -60z" />
    <glyph glyph-name="J" unicode="j" horiz-adv-x="599" 
d="M97 -381l-100 289c55 0 97 4 128 12c31 7 55 24 71 50c16 25 24 63 24 114v939h319v-970c0 -73 -7 -137 -20 -194c-15 -55 -39 -100 -70 -133c-32 -36 -77 -63 -135 -80c-57 -18 -129 -27 -217 -27zM464 1168c-25 -15 -53 -23 -84 -23s-58 7 -83 22s-45 35 -60 61
c-15 27 -23 56 -23 85c0 31 7 59 22 84c16 26 36 46 61 61s52 22 83 22s59 -7 84 -22s45 -36 60 -61s22 -53 22 -84c0 -32 -7 -60 -22 -85s-35 -45 -60 -60z" />
    <glyph glyph-name="K" unicode="k" horiz-adv-x="1145" 
d="M320 0h-320v1418l320 1v-784h4l331 388h375l-370 -439l435 -584h-399l-376 502v-502z" />
    <glyph glyph-name="L" unicode="l" horiz-adv-x="369" 
d="M0 -2v1421l319 1v-1418z" />
    <glyph glyph-name="M" unicode="m" horiz-adv-x="1538" 
d="M910 629v-630h-321v630c-5 93 -45 142 -121 145h-18c-81 -3 -122 -60 -122 -169v-606h-320v606c0 290 147 443 442 459h18c117 -7 211 -35 282 -84c70 49 164 77 281 84h18c295 -16 442 -169 442 -459v-606h-320v606c0 109 -41 166 -122 169h-18
c-76 -3 -116 -52 -121 -145z" />
    <glyph glyph-name="N" unicode="n" horiz-adv-x="952" 
d="M442 775h18c81 -3 122 -60 122 -170v-605h320v605c0 291 -147 444 -442 459h-18c-295 -15 -442 -168 -442 -459v-605h320v605c0 110 41 167 122 170z" />
    <glyph glyph-name="O" unicode="o" 
d="M81 236c-54 84 -81 178 -81 282c0 77 16 150 47 218s74 126 129 175s118 88 189 115s145 40 221 40c77 0 151 -13 222 -40c70 -25 133 -63 189 -114c55 -51 98 -110 129 -176c31 -68 47 -141 47 -218c0 -80 -15 -153 -46 -218c-31 -67 -75 -126 -130 -177
c-57 -51 -120 -89 -189 -115c-71 -27 -145 -41 -222 -41c-101 0 -198 24 -289 72s-163 114 -216 197zM586 257c72 0 135 26 188 77s80 113 80 184c0 47 -12 90 -37 129c-26 40 -59 71 -99 94c-41 23 -85 35 -132 35c-46 0 -90 -12 -131 -35c-40 -23 -73 -54 -99 -94
c-25 -39 -37 -82 -37 -129c0 -71 27 -133 80 -184s116 -77 187 -77z" />
    <glyph glyph-name="P" unicode="p" 
d="M586 776c72 0 135 -26 188 -77c53 -52 80 -113 80 -184c0 -47 -12 -89 -37 -128c-26 -40 -59 -71 -99 -94c-41 -23 -85 -35 -132 -35c-46 0 -90 12 -131 35c-40 23 -73 54 -99 94c-25 37 -37 80 -37 128c0 71 27 133 80 184s116 77 187 77zM0 522v-915l319 -1v422l23 -10
l23 -10c72 -26 146 -39 221 -39c77 0 151 13 222 39s134 64 189 115c55 50 98 108 129 175c31 68 47 140 47 217c0 80 -15 153 -46 218c-31 67 -75 126 -130 176c-58 52 -121 90 -189 115c-71 27 -145 41 -222 41c-101 0 -198 -24 -289 -72c-91 -47 -163 -112 -216 -196
c-53 -81 -80 -172 -81 -275z" />
    <glyph glyph-name="Q" unicode="q" 
d="M817 387c-26 -40 -59 -71 -99 -94c-41 -23 -85 -35 -131 -35c-47 0 -91 12 -132 35c-40 23 -73 54 -99 94c-25 39 -37 81 -37 128c0 71 27 132 80 184c53 51 116 77 188 77c71 0 134 -26 187 -77s80 -113 80 -184c0 -48 -12 -91 -37 -128zM1173 -393v915
c-1 103 -28 194 -81 275c-53 84 -125 149 -216 196c-91 48 -187 72 -289 72c-77 0 -151 -14 -222 -41c-68 -25 -131 -63 -189 -115c-55 -50 -99 -109 -130 -176c-31 -65 -46 -138 -46 -218c0 -77 16 -149 47 -217c31 -67 74 -125 129 -175c55 -51 118 -89 189 -115
c72 -26 146 -39 222 -39c75 0 149 13 221 39l23 10l23 10v-422z" />
    <glyph glyph-name="R" unicode="r" horiz-adv-x="575" 
d="M525 757v302c-21 3 -42 5 -65 6h-18c-295 -15 -442 -168 -442 -459v-606h320v606c0 110 41 167 122 170h18c25 -1 47 -7 65 -19z" />
    <glyph glyph-name="S" unicode="s" horiz-adv-x="884" 
d="M0 108l162 214c63 -63 141 -95 232 -95c95 0 143 28 143 84c0 29 -26 51 -79 65c-48 11 -107 26 -178 45c-67 17 -122 49 -167 96c-45 45 -67 116 -67 212c0 73 18 135 55 186c37 50 85 87 145 112s126 37 199 37c39 0 81 -6 124 -17c47 -15 87 -32 122 -52
c39 -22 73 -47 104 -74l-176 -175c-51 39 -107 58 -168 58c-73 0 -109 -20 -109 -61c0 -36 27 -62 81 -77c57 -15 116 -30 179 -45c67 -17 122 -48 165 -92c45 -45 67 -116 67 -214c0 -73 -19 -135 -58 -188c-39 -54 -91 -94 -155 -119c-66 -27 -133 -41 -201 -41
c-56 0 -108 5 -157 14c-48 9 -92 24 -131 44c-45 22 -89 50 -132 83z" />
    <glyph glyph-name="_87" horiz-adv-x="1576" 
d="M423 669c39 -11 99 -26 179 -46c67 -17 122 -48 165 -92c45 -45 67 -116 67 -215c0 -73 -19 -136 -58 -189s-90 -92 -155 -119c-66 -27 -133 -41 -201 -41c-56 0 -108 5 -157 14c-48 9 -92 24 -131 44c-42 21 -86 49 -132 84l162 215c63 -63 141 -95 232 -95
c95 0 143 28 143 83c0 31 -26 52 -79 65c-15 3 -39 10 -72 19l-24 6l-25 6l-57 15c-67 17 -122 49 -167 96s-67 118 -67 213c0 74 18 136 55 187s86 89 145 113c60 25 126 37 199 37c97 0 167 -12 210 -37c41 -25 88 -38 142 -39h156v427l319 -2v-425h247l-65 -262h-182
v-311c0 -89 57 -133 170 -133c38 0 66 4 84 13l-92 -309c-15 -3 -32 -4 -49 -4c-95 0 -175 15 -238 45s-112 75 -145 135c-33 59 -49 135 -49 228v336h-157c-69 -1 -127 13 -172 41c-45 27 -103 39 -173 35c-73 0 -109 -20 -109 -61c0 -36 27 -62 81 -77z" />
    <glyph glyph-name="T" unicode="t" horiz-adv-x="834" 
d="M219 407v344h-211l72 274h139v394l319 -2v-392h212l-71 -274h-141v-319c0 -91 57 -136 170 -136c38 0 66 4 84 13l-92 -318c-15 -3 -32 -4 -49 -4c-97 0 -176 15 -238 46c-64 31 -112 77 -145 139c-33 61 -49 139 -49 235z" />
    <glyph glyph-name="U" unicode="u" horiz-adv-x="952" 
d="M320 428v596h-320v-596c0 -290 147 -443 442 -459h18c295 16 442 169 442 459v596h-320v-596c0 -109 -41 -166 -122 -169h-18c-81 3 -122 60 -122 169z" />
    <glyph glyph-name="V" unicode="v" horiz-adv-x="1109" 
d="M720 1023h339l-539 -1065l-520 1063l325 2l199 -454z" />
    <glyph glyph-name="W" unicode="w" horiz-adv-x="1538" 
d="M589 403v620h321v-620c5 -93 49 -140 134 -140s127 55 127 164v596h320v-596c0 -290 -147 -443 -442 -459h-18c-117 7 -211 35 -282 84c-70 -49 -164 -77 -281 -84h-18c-295 16 -442 169 -442 459v596h320v-596c0 -109 42 -164 127 -164s129 47 134 140z" />
    <glyph glyph-name="X" unicode="x" horiz-adv-x="1176" 
d="M339 0l-339 -1l376 532l-351 490l351 2l186 -284l199 284l345 -1l-370 -495l390 -525l-381 -2l-195 296z" />
    <glyph glyph-name="Y" unicode="y" horiz-adv-x="1038" 
d="M670 19v-137h-1v-10l-1 -3v-2c-1 -11 -3 -19 -5 -23l-2 -7l-2 -7l-2 -5l-1 -3c-15 -36 -38 -65 -69 -86c-33 -23 -69 -34 -108 -34c-51 0 -94 17 -131 52s-56 77 -59 128l-289 -169c13 -45 48 -97 104 -154c86 -85 200 -129 343 -132h53c65 0 129 11 191 34
c69 25 124 57 165 98c88 89 132 196 132 320v1144l-320 -1v-574c0 -60 -14 -106 -42 -137c-29 -31 -68 -47 -117 -47c-51 0 -90 15 -118 46s-42 77 -42 138v575h-320v-597c0 -334 158 -484 473 -451c53 5 109 20 168 44z" />
    <glyph glyph-name="Z" unicode="z" horiz-adv-x="1035" 
d="M971 1024l-435 -735h449l-77 -289h-908l452 756h-370l64 268h825z" />
    <glyph glyph-name="braceleft" unicode="{" horiz-adv-x="664" 
d="M0 500v168c46 0 92 9 139 27s70 51 70 100v465c0 61 15 113 45 156c29 43 65 75 106 96s78 32 111 32h143v-166h-51c-85 0 -127 -51 -127 -153v-439c-1 -49 -13 -88 -36 -117s-51 -49 -84 -61c-32 -12 -63 -19 -93 -20v-6c33 -3 66 -9 98 -19c30 -11 56 -31 79 -61
c23 -31 35 -76 36 -137v-439c0 -43 5 -75 15 -97s24 -37 41 -44c17 -8 41 -12 71 -12h51v-168h-143c-31 0 -68 11 -110 33c-43 21 -78 54 -107 97c-30 43 -45 95 -45 154v467c0 56 -23 94 -70 114s-93 30 -139 30z" />
    <glyph glyph-name="bar" unicode="|" horiz-adv-x="275" 
d="M225 -279h-225v2051h225v-2051z" />
    <glyph glyph-name="braceright" unicode="}" horiz-adv-x="664" 
d="M614 668v-168c-21 0 -49 -4 -84 -11c-33 -7 -62 -22 -87 -43s-38 -51 -38 -90v-467c0 -59 -15 -111 -44 -154c-31 -44 -67 -76 -107 -97c-42 -22 -79 -33 -111 -33h-143v168h51c44 0 76 10 97 30c20 19 30 60 30 123v439c1 86 22 143 64 170s92 42 149 47v6
c-50 3 -98 19 -144 49c-45 29 -68 79 -69 149v439c0 102 -42 153 -127 153h-51v166h143c33 0 70 -11 111 -32s77 -53 107 -96c29 -43 44 -95 44 -156v-465c0 -49 23 -82 70 -100s94 -27 139 -27z" />
    <glyph glyph-name="asciitilde" unicode="~" horiz-adv-x="705" 
d="M532 1479h123c-11 -75 -33 -132 -66 -173s-83 -61 -152 -61c-27 0 -69 11 -126 33c-52 22 -90 33 -113 33c-17 0 -34 -8 -49 -23s-24 -34 -27 -55h-122c5 63 27 117 66 161c38 43 85 65 142 65c31 0 77 -6 139 -17c61 -24 100 -36 116 -36c34 0 57 24 69 73z" />
    <glyph glyph-name="exclamdown" unicode="&#xa1;" horiz-adv-x="462" 
d="M298 1100c-28 -16 -58 -24 -89 -24c-32 0 -61 8 -88 25c-28 15 -50 37 -67 65c-17 27 -25 56 -25 88c0 53 17 97 52 132s78 53 128 53c33 0 64 -8 92 -24c29 -17 50 -40 65 -67c16 -29 24 -60 24 -94c0 -33 -8 -62 -25 -89c-17 -28 -39 -50 -67 -65zM50 975h312l50 -977
h-412z" />
    <glyph glyph-name="cent" unicode="&#xa2;" horiz-adv-x="980" 
d="M346 1171v112h304v-83c35 -5 69 -13 103 -24c63 -21 118 -50 166 -89l-160 -218c-25 21 -55 38 -90 51c-35 12 -71 18 -108 18c-70 0 -130 -23 -179 -68s-74 -102 -74 -170c0 -54 10 -101 31 -142s51 -74 91 -99c39 -25 84 -37 137 -37c77 0 141 24 194 72l169 -214
c-25 -27 -59 -50 -102 -69c-45 -19 -91 -34 -137 -44l-21 -4l-20 -3v-100h-304v127c-33 13 -60 25 -81 37c-87 47 -152 110 -197 187s-68 161 -68 251c0 81 14 154 42 221s67 124 116 173c49 48 109 85 178 112l5 2z" />
    <glyph glyph-name="sterling" unicode="&#xa3;" horiz-adv-x="853" 
d="M719 426l84 -245l-21 -12c-124 -85 -234 -106 -331 -61c-98 45 -209 31 -332 -41l-119 203c127 85 194 164 200 235s-18 140 -71 207c-54 66 -86 135 -97 206c-14 92 -6 167 25 226c39 73 92 126 160 159c53 25 109 39 168 42c62 3 119 -7 171 -30
c64 -27 111 -63 142 -107c21 -32 39 -74 54 -125l-239 -101c-19 72 -57 111 -112 116c-56 5 -92 -22 -108 -82c-17 -59 8 -132 73 -218c65 -85 102 -164 113 -237c3 -40 -3 -81 -16 -124c-11 -31 -19 -50 -25 -59l-12 6l-4 2l-3 2h-1c71 -58 171 -45 301 38zM11 688h655
v-160h-655v160z" />
    <glyph glyph-name="currency" unicode="&#xa4;" horiz-adv-x="981" 
d="M120 832l-117 116l178 178l117 -117c53 25 108 38 167 38c60 0 116 -13 169 -38l120 120l177 -176l-121 -121c25 -53 38 -109 38 -168c0 -63 -12 -119 -37 -168l117 -117l-178 -178l-117 117c-49 -25 -105 -37 -168 -37c-59 0 -115 13 -168 38l-121 -121l-176 177
l120 120c-25 53 -38 109 -38 169c0 59 13 115 38 168zM305 664c0 -45 16 -83 47 -114s69 -47 114 -47c44 0 82 16 113 47s47 69 47 114c0 44 -16 82 -47 113s-69 47 -113 47c-45 0 -83 -16 -114 -47s-47 -69 -47 -113z" />
    <glyph glyph-name="yen" unicode="&#xa5;" horiz-adv-x="1134" 
d="M330 751h-112v-160h169v-110h-169v-160h169v-235h319v235h167v160h-167v110h167v160h-113l324 565h-350l-190 -363l-191 363h-353z" />
    <glyph glyph-name="brokenbar" unicode="&#xa6;" horiz-adv-x="275" 
d="M0 654h225v-933h-225v933zM225 858h-225v914h225v-914z" />
    <glyph glyph-name="section" unicode="&#xa7;" horiz-adv-x="776" 
d="M20 1152c0 66 17 122 52 169c34 48 79 85 135 110c53 25 112 37 176 37c58 0 114 -10 169 -30c55 -21 105 -50 150 -88l-136 -176c-31 27 -59 47 -85 60c-25 13 -55 19 -91 19c-26 0 -50 -7 -73 -22s-35 -35 -35 -60c0 -35 26 -62 77 -82c45 -18 98 -38 161 -60
c56 -21 104 -53 145 -96s61 -107 61 -193c0 -95 -28 -172 -83 -229l22 -22c41 -43 61 -107 61 -194c0 -109 -36 -193 -108 -252c-73 -59 -165 -89 -274 -89c-66 0 -128 10 -185 31c-60 20 -113 50 -159 90l148 194c47 -55 110 -83 187 -83c31 0 60 8 88 24
c27 15 41 38 41 67c0 35 -26 63 -77 84l-18 7l-19 8c-16 6 -30 11 -42 16l-41 15l-42 16c-57 21 -105 53 -145 96s-60 106 -60 189c0 66 17 122 52 169c13 18 28 35 46 51c-21 19 -34 30 -38 35c-40 43 -60 106 -60 189zM387 805c-3 1 -5 2 -7 3c-21 -1 -42 -9 -63 -22
c-23 -15 -35 -35 -35 -59c0 -35 26 -62 77 -82c39 -15 66 -24 79 -27c29 34 40 69 35 105c-6 33 -35 61 -86 82z" />
    <glyph glyph-name="dieresis" unicode="&#xa8;" horiz-adv-x="943" 
d="M554 1512c-16 28 -24 58 -24 89c0 33 8 62 25 89c16 27 38 49 65 66s56 25 88 25c53 0 97 -17 132 -52s53 -78 53 -128c0 -33 -8 -64 -24 -91c-16 -28 -38 -50 -67 -66s-60 -24 -94 -24c-33 0 -62 8 -89 25c-28 17 -50 39 -65 67zM24 1512c-16 28 -24 58 -24 89
c0 33 8 62 25 89c16 27 38 49 65 66s56 25 88 25c53 0 97 -17 132 -52s53 -78 53 -128c0 -33 -8 -64 -24 -91c-16 -28 -38 -50 -67 -66s-60 -24 -94 -24c-33 0 -62 8 -89 25c-28 17 -50 39 -65 67z" />
    <glyph glyph-name="copyright" unicode="&#xa9;" horiz-adv-x="1176" 
d="M961 841c-110 -111 -243 -166 -398 -166s-288 55 -398 166s-165 245 -165 400c0 157 55 290 165 401s243 166 398 166s288 -55 398 -166s165 -244 165 -401c0 -155 -55 -289 -165 -400zM130 1241c0 -121 42 -223 127 -308c84 -85 186 -128 306 -128c119 0 221 43 306 128
s127 187 127 308s-42 224 -127 309s-187 128 -306 128c-120 0 -222 -43 -306 -128c-85 -85 -127 -188 -127 -309zM777 1020l-94 98c-9 -11 -20 -23 -35 -34c-23 -16 -48 -24 -77 -24c-27 0 -53 8 -76 24c-24 16 -43 37 -57 64s-21 55 -21 84s7 57 21 84c13 25 31 47 56 64
c24 16 50 24 77 24c29 0 54 -8 77 -24c9 -6 21 -17 34 -32l94 97c-19 21 -40 38 -61 51c-45 27 -93 41 -144 41c-50 0 -98 -14 -143 -41s-80 -64 -105 -110c-26 -47 -39 -98 -39 -154c0 -55 13 -106 39 -153c25 -47 60 -83 105 -110s93 -41 143 -41c51 0 99 14 144 41
c22 13 43 30 62 51z" />
    <glyph glyph-name="ordfeminine" unicode="&#xaa;" horiz-adv-x="804" 
d="M298 1233c-28 -15 -50 -34 -65 -58c-16 -25 -24 -51 -24 -80c0 -45 18 -83 53 -114s76 -47 123 -47s89 16 124 47s53 69 53 114c0 29 -8 55 -24 80c-18 24 -40 43 -66 58c-27 15 -56 22 -87 22s-60 -7 -87 -22zM562 774v17c-53 -25 -112 -37 -177 -37
c-53 0 -102 8 -146 25c-46 17 -87 41 -124 72s-66 68 -86 109c-21 41 -31 86 -31 135s10 94 31 135c23 44 51 80 86 109c36 31 77 54 124 71c47 16 96 24 146 24c53 0 102 -8 147 -25c11 -5 24 -12 37 -21l183 -1v-613h-190z" />
    <glyph glyph-name="guillemotleft" unicode="&#xab;" horiz-adv-x="1094" 
d="M400 184h257l-400 530l400 531h-257l-400 -531zM787 184h257l-400 530l400 531h-257l-400 -531z" />
    <glyph glyph-name="logicalnot" unicode="&#xac;" horiz-adv-x="1157" 
d="M871 305v258h-871l2 251h1104v-79h1v-430h-236z" />
    <glyph glyph-name="registered" unicode="&#xae;" horiz-adv-x="1176" 
d="M509 1405v-163c24 0 44 3 60 9c16 5 28 14 37 27s13 29 13 49c0 31 -9 51 -27 62c-19 11 -46 16 -83 16zM509 948h-143v581h163c47 0 87 -6 122 -18s62 -31 81 -58s29 -62 29 -104c0 -33 -8 -62 -25 -89c-17 -29 -40 -48 -68 -59l145 -254h-167l-135 261h-2v-260z
M961 841c-110 -111 -243 -166 -398 -166s-288 55 -398 166s-165 245 -165 400c0 157 55 290 165 401s243 166 398 166s288 -55 398 -166s165 -244 165 -401c0 -155 -55 -289 -165 -400zM130 1241c0 -121 42 -223 127 -308c84 -85 186 -128 306 -128c119 0 221 43 306 128
s127 187 127 308s-42 224 -127 309s-187 128 -306 128c-120 0 -222 -43 -306 -128c-85 -85 -127 -188 -127 -309z" />
    <glyph glyph-name="macron" unicode="&#xaf;" horiz-adv-x="1107" 
d="M0 1788h1057v-252h-1057v252z" />
    <glyph glyph-name="degree" unicode="&#xb0;" horiz-adv-x="447" 
d="M339 1139c-39 -39 -86 -58 -141 -58s-101 19 -140 58s-58 86 -58 141s19 101 58 140s85 58 140 58s102 -19 141 -58s58 -85 58 -140s-19 -102 -58 -141zM119 1280c0 -22 8 -41 23 -56c15 -16 34 -24 56 -24s41 8 57 24c15 15 23 34 23 56c0 20 -8 39 -23 56
c-17 15 -36 23 -57 23c-22 0 -41 -8 -56 -23c-15 -17 -23 -36 -23 -56z" />
    <glyph glyph-name="plusminus" unicode="&#xb1;" horiz-adv-x="1108" 
d="M1 981h403v408h250v-408h404v-251h-404v-408h-250v408h-403v251zM0 253h1058v-241h-1058v241z" />
    <glyph glyph-name="twosuperior" unicode="&#xb2;" horiz-adv-x="578" 
d="M313 667h215v-160h-528l255 322c25 34 45 63 58 88s20 51 20 76s-9 44 -27 59c-17 15 -39 22 -66 22c-22 0 -40 -7 -54 -21s-24 -32 -29 -55l-150 96c34 54 71 91 110 110c41 19 85 29 134 29c46 0 87 -9 124 -28c39 -19 69 -45 90 -80c22 -35 33 -76 33 -124
c0 -31 -6 -62 -17 -94c-12 -31 -26 -58 -41 -81c-17 -24 -36 -49 -58 -76l-34 -41l-17 -21z" />
    <glyph glyph-name="threesuperior" unicode="&#xb3;" horiz-adv-x="568" 
d="M125 1027l-122 71c28 45 64 79 109 102c45 22 94 33 146 33c41 0 79 -8 114 -24c35 -17 62 -41 83 -72s31 -68 31 -112c0 -31 -5 -56 -16 -77s-28 -42 -51 -63c20 -11 38 -25 53 -42c13 -15 25 -35 34 -58c8 -22 12 -44 12 -67c0 -39 -7 -73 -22 -102
c-14 -27 -35 -51 -62 -71c-27 -19 -56 -32 -89 -41c-31 -9 -65 -13 -102 -13c-28 0 -58 5 -89 14c-29 9 -58 22 -85 40c-27 17 -50 37 -69 60l116 117c19 -25 38 -43 57 -54c19 -12 42 -18 69 -18c28 0 51 7 70 22c18 14 27 36 27 65s-10 49 -30 59c-22 9 -49 14 -82 14h-41
l-16 -1v124h25l26 1c17 1 33 3 50 7c15 3 27 10 37 21c9 11 14 27 14 46c0 27 -8 47 -24 61c-17 13 -38 20 -63 20c-10 0 -21 -2 -33 -5c-13 -5 -22 -10 -26 -13c-7 -5 -16 -12 -27 -21c-6 -6 -11 -10 -14 -13l-6 -6z" />
    <glyph glyph-name="acute" unicode="&#xb4;" horiz-adv-x="489" 
d="M221 1539l218 403h-295l-144 -403h221z" />
    <glyph glyph-name="mu" unicode="&#xb5;" horiz-adv-x="949" 
d="M712 2h187v1020l-320 -3v-640c0 -34 -6 -64 -18 -89c-12 -26 -28 -46 -48 -60c-21 -14 -42 -21 -65 -21c-85 0 -128 57 -128 170v641h-320v-641c0 -35 1 -63 4 -84v-850h312v484c25 -5 51 -8 79 -9c119 0 224 27 317 82z" />
    <glyph glyph-name="paragraph" unicode="&#xb6;" horiz-adv-x="906" 
d="M525 0h-187v605h-12c-71 0 -139 29 -204 88c-80 71 -121 163 -122 276c-3 123 34 223 109 298c96 96 251 147 465 152h278v-1419h-187v1088h-140v-1088z" />
    <glyph glyph-name="periodcentered" unicode="&#xb7;" horiz-adv-x="411" 
d="M92 917c28 16 58 24 89 24s61 -8 89 -24c27 -17 49 -39 66 -66s25 -56 25 -88c0 -53 -17 -97 -52 -132s-78 -53 -128 -53c-33 0 -64 8 -91 24c-28 16 -50 38 -66 67s-24 61 -24 94s8 62 25 89c17 28 39 50 67 65z" />
    <glyph glyph-name="periodcentered" unicode="&#x2219;" horiz-adv-x="411" 
d="M92 917c28 16 58 24 89 24s61 -8 89 -24c27 -17 49 -39 66 -66s25 -56 25 -88c0 -53 -17 -97 -52 -132s-78 -53 -128 -53c-33 0 -64 8 -91 24c-28 16 -50 38 -66 67s-24 61 -24 94s8 62 25 89c17 28 39 50 67 65z" />
    <glyph glyph-name="cedilla" unicode="&#xb8;" horiz-adv-x="465" 
d="M386 51l-76 -118c25 -9 48 -26 70 -51c23 -27 35 -57 35 -89c0 -47 -25 -88 -74 -121c-47 -32 -104 -48 -171 -48c-59 0 -115 15 -170 46l71 92c31 -24 64 -36 99 -36c33 0 59 7 80 22c19 13 29 28 29 45s-9 32 -28 45c-20 14 -55 22 -105 24l92 189h148z" />
    <glyph glyph-name="onesuperior" unicode="&#xb9;" horiz-adv-x="297" 
d="M82 1094l-81 2l-1 119h247v-708l-165 -1v588z" />
    <glyph glyph-name="ordmasculine" unicode="&#xba;" horiz-adv-x="567" 
d="M189 973c-6 -31 -9 -68 -9 -111c0 -42 3 -79 9 -110c5 -31 15 -56 29 -73c13 -18 32 -27 55 -27c64 0 96 70 96 210s-32 210 -96 210c-23 0 -42 -9 -55 -26c-14 -18 -24 -42 -29 -73zM482 1109c19 -35 32 -75 40 -118c7 -46 11 -89 11 -129c0 -62 -7 -119 -22 -172
c-15 -57 -42 -104 -80 -140c-39 -37 -92 -56 -158 -56c-51 0 -92 11 -125 34c-34 22 -61 52 -80 89c-19 38 -33 77 -40 117c-8 41 -12 84 -12 128c0 45 4 87 12 128c7 41 21 80 40 118c18 35 45 65 80 89c34 22 76 33 125 33c51 0 93 -11 128 -33c35 -23 62 -52 81 -88z" />
    <glyph glyph-name="guillemotright" unicode="&#xbb;" horiz-adv-x="1094" 
d="M387 184h257l400 530l-400 531h-257l400 -531zM0 184h257l400 530l-400 531h-257l400 -531z" />
    <glyph glyph-name="onequarter" unicode="&#xbc;" horiz-adv-x="1172" 
d="M82 1298l-81 2l-1 119h247v-708l-165 -1v588zM848 1419l-713 -1419h-159l710 1419h162zM1097 278l1 145h-90v288h-167v-288h-120v288h-167l1 -434h286v-285l167 -1v287h89z" />
    <glyph glyph-name="onehalf" unicode="&#xbd;" horiz-adv-x="1218" 
d="M106 1298l-81 2l-1 119h247v-708l-165 -1v588zM918 160h215v-160h-528l255 322c25 34 45 63 58 88s20 51 20 76s-9 44 -27 59c-17 15 -39 22 -66 22c-22 0 -40 -7 -54 -21s-24 -32 -29 -55l-150 96c34 54 71 91 110 110c41 19 85 29 134 29c46 0 87 -9 124 -28
c39 -19 69 -45 90 -80c22 -35 33 -76 33 -124c0 -31 -6 -62 -17 -94c-12 -31 -26 -58 -41 -81c-17 -24 -36 -49 -58 -76l-34 -41l-17 -21zM922 1419l-713 -1419h-159l710 1419h162z" />
    <glyph glyph-name="threequarters" unicode="&#xbe;" horiz-adv-x="1441" 
d="M125 1213l-122 71c28 45 64 79 109 102c45 22 94 33 146 33c41 0 79 -8 114 -24c35 -17 62 -41 83 -72s31 -68 31 -112c0 -31 -5 -56 -16 -77s-28 -42 -51 -63c20 -11 38 -25 53 -42c13 -15 25 -35 34 -58c8 -22 12 -44 12 -67c0 -39 -7 -73 -22 -102
c-14 -27 -35 -51 -62 -71c-27 -19 -56 -32 -89 -41c-31 -9 -65 -13 -102 -13c-28 0 -58 5 -89 14c-29 9 -58 22 -85 40c-27 17 -50 37 -69 60l116 117c19 -25 38 -43 57 -54c19 -12 42 -18 69 -18c28 0 51 7 70 22c18 14 27 36 27 65s-10 49 -30 59c-22 9 -49 14 -82 14h-41
l-16 -1v124h25l26 1c17 1 33 3 50 7c15 3 27 10 37 21c9 11 14 27 14 46c0 27 -8 47 -24 61c-17 13 -38 20 -63 20c-10 0 -21 -2 -33 -5c-13 -5 -22 -10 -26 -13c-7 -5 -16 -12 -27 -21c-6 -6 -11 -10 -14 -13l-6 -6zM1365 278l1 145h-90v288h-167v-288h-120v288h-167
l1 -434h286v-285l167 -1v287h89zM1078 1419l-713 -1419h-159l710 1419h162z" />
    <glyph glyph-name="first" horiz-adv-x="1554" 
d="M164 1173l-163 4l-1 239h494v-1417l-330 -1v1175zM872 1023c22 -6 55 -14 100 -25c37 -10 67 -27 91 -51c25 -25 38 -65 38 -120c0 -41 -11 -76 -33 -105c-21 -29 -50 -51 -86 -66c-37 -15 -74 -23 -112 -23c-31 0 -60 3 -87 8s-51 13 -73 24c-23 12 -48 28 -73 47
l90 119c35 -35 78 -52 129 -52c53 0 80 15 80 46c0 17 -15 29 -44 36c-9 2 -22 5 -40 10l-14 4l-14 3c-12 3 -22 6 -31 8c-37 10 -68 28 -93 54s-37 65 -37 118c0 41 10 76 30 104c21 29 48 50 81 63c33 14 70 21 110 21c55 0 94 -7 117 -21s49 -21 79 -22h87v130l177 -1
v-129h137l-36 -145h-101v-173c0 -49 32 -74 95 -74c21 0 36 2 46 7l-51 -172c-9 -1 -18 -2 -27 -2c-53 0 -97 8 -132 25s-62 42 -81 75c-18 33 -27 75 -27 127v187h-88c-38 -1 -70 7 -95 22s-57 22 -96 20c-41 0 -61 -11 -61 -34c0 -20 15 -34 45 -43z" />
    <glyph glyph-name="second" horiz-adv-x="2387" 
d="M625 319h430v-319h-1055l510 643c48 64 87 123 116 176c27 49 40 99 40 152c0 49 -18 88 -54 118c-37 29 -81 44 -132 44c-45 0 -81 -14 -108 -41c-28 -28 -47 -65 -58 -111l-301 192c68 108 142 182 221 221c77 39 167 58 268 58c87 0 170 -19 248 -56
c75 -37 135 -91 180 -161c44 -71 66 -153 66 -248c0 -67 -11 -130 -34 -188c-21 -56 -49 -110 -83 -163c-35 -51 -73 -102 -115 -152l-75 -89l-33 -40l-16 -18zM1412 1055h10c45 -2 68 -33 68 -94v-335h177v335c0 161 -82 246 -245 254h-10c-163 -8 -244 -93 -244 -254v-335
h177v335c0 61 22 92 67 94zM2134 983c-14 22 -32 39 -54 52c-23 13 -48 19 -73 19c-26 0 -50 -6 -73 -19c-22 -13 -40 -30 -55 -52c-13 -21 -20 -45 -20 -71c0 -39 15 -73 44 -102c29 -28 64 -42 104 -42c39 0 74 14 104 42c29 29 44 63 44 102c0 26 -7 50 -21 71z
M2331 1414v-506c-1 -56 -16 -107 -45 -152c-29 -46 -69 -82 -119 -108c-50 -27 -103 -40 -160 -40c-43 0 -84 8 -123 23c-37 13 -72 34 -104 63c-31 28 -55 61 -72 98c-17 36 -26 76 -26 120c0 43 9 83 26 120s41 70 72 97c31 28 65 49 104 64c40 14 81 21 123 21
s83 -7 122 -21l13 -6l13 -5v233z" />
    <glyph glyph-name="third" horiz-adv-x="2161" 
d="M249 1040l-243 142c56 90 129 158 218 203s186 67 292 67c84 0 160 -16 227 -49c69 -33 125 -81 167 -144c41 -65 62 -140 62 -223c0 -58 -11 -109 -32 -154c-21 -43 -56 -85 -103 -126c41 -23 76 -51 106 -85c29 -35 52 -74 69 -117c16 -43 24 -87 24 -132
c0 -79 -15 -148 -45 -205c-31 -58 -73 -105 -125 -142c-54 -37 -113 -65 -177 -82c-67 -17 -135 -26 -204 -26c-62 0 -121 9 -178 28c-60 19 -116 46 -169 81c-55 35 -101 75 -138 119l231 235c39 -49 77 -86 114 -109c38 -24 84 -36 138 -36c57 0 103 14 140 43
s55 72 55 131s-20 98 -60 118c-42 19 -97 29 -164 29h-56c-4 -1 -13 -1 -27 -1h-15l-16 -1v248h22c9 0 18 0 27 1h26l27 1c36 1 69 5 99 12s55 22 74 43s28 51 28 92c0 55 -16 95 -48 122c-33 27 -75 40 -126 40c-25 0 -47 -3 -65 -10c-17 -6 -35 -14 -52 -25
c-11 -8 -29 -23 -54 -44c-7 -5 -12 -10 -15 -13c-1 -1 -3 -2 -6 -5l-7 -7c-5 -4 -9 -8 -13 -12l-5 -4zM1446 1038v173c-14 2 -29 3 -44 4h-10c-163 -8 -244 -93 -244 -254v-335h177v335c0 61 22 92 67 94h10c19 -1 33 -6 44 -17zM1904 983c-14 22 -32 39 -54 52
c-23 13 -48 19 -73 19c-26 0 -50 -6 -73 -19c-22 -13 -40 -30 -55 -52c-13 -21 -20 -45 -20 -71c0 -39 15 -73 44 -102c29 -28 64 -42 104 -42c39 0 74 14 104 42c29 29 44 63 44 102c0 26 -7 50 -21 71zM2101 1414v-506c-1 -56 -16 -107 -45 -152
c-29 -46 -69 -82 -119 -108c-50 -27 -103 -40 -160 -40c-43 0 -84 8 -123 23c-37 13 -72 34 -104 63c-31 28 -55 61 -72 98c-17 36 -26 76 -26 120c0 43 9 83 26 120s41 70 72 97c31 28 65 49 104 64c40 14 81 21 123 21s83 -7 122 -21l13 -6l13 -5v233z" />
    <glyph glyph-name="fourth" horiz-adv-x="2166" 
d="M1076 560l2 287h-177v572h-332v-572h-237v572h-332l2 -861h567v-565l332 -2v569h175zM1442 1173h159v201h163v-214c16 16 35 28 58 37s47 14 71 14c131 0 197 -77 197 -230v-330h-163v319c0 31 -7 55 -22 70c-14 16 -34 24 -60 24c-25 0 -45 -8 -59 -24
c-15 -15 -22 -39 -22 -70v-319h-163v382h-159v-162c0 -47 29 -70 87 -70c19 0 33 2 42 7l-47 -162c-7 -1 -15 -2 -24 -2c-49 0 -90 8 -122 23c-33 16 -57 40 -74 71s-25 71 -25 120v175h-126l36 140h90v201l163 -1v-200z" />
    <glyph glyph-name="fifth" horiz-adv-x="1924" 
d="M0 110l173 298c55 -76 135 -117 242 -123c54 0 102 21 143 62s61 94 61 159c0 69 -26 120 -78 155c-53 35 -114 52 -184 52c-86 0 -177 -19 -274 -56v762h728l1 -319h-400v-123c13 1 24 2 33 3l11 1l10 1c2 1 10 1 24 1c306 -29 469 -194 488 -496
c0 -77 -15 -149 -44 -216c-30 -65 -72 -120 -125 -165c-54 -46 -115 -81 -183 -104c-70 -23 -141 -35 -214 -35c-105 -7 -243 41 -412 143zM1204 1173h159v201h163v-214c16 16 35 28 58 37s47 14 71 14c131 0 197 -77 197 -230v-330h-163v319c0 31 -7 55 -22 70
c-14 16 -34 24 -60 24c-25 0 -45 -8 -59 -24c-15 -15 -22 -39 -22 -70v-319h-163v382h-159v-162c0 -47 29 -70 87 -70c19 0 33 2 42 7l-47 -162c-7 -1 -15 -2 -24 -2c-49 0 -90 8 -122 23c-33 16 -57 40 -74 71s-25 71 -25 120v175h-126l36 140h90v201l163 -1v-200z" />
    <glyph glyph-name="_128" horiz-adv-x="0" 
 />
    <glyph glyph-name="questiondown" unicode="&#xbf;" horiz-adv-x="962" 
d="M666 387l246 -168c-35 -53 -75 -97 -122 -132s-100 -62 -157 -80c-55 -19 -115 -28 -178 -28c-59 0 -116 10 -173 29c-55 19 -104 47 -146 83c-42 35 -75 78 -99 129c-25 49 -37 104 -37 165c0 77 14 139 41 186c27 46 64 87 111 123l38 28l37 28c23 18 43 37 58 57
c13 19 20 42 20 69v115h312v-149c0 -77 -12 -137 -35 -180c-24 -43 -57 -78 -98 -105l-34 -22l-33 -23c-22 -14 -39 -30 -50 -48c-12 -17 -18 -39 -18 -67c0 -33 15 -61 45 -84c29 -23 62 -35 98 -35c69 0 127 36 174 109zM553 1136c-28 -16 -58 -24 -89 -24
c-32 0 -61 8 -88 25c-28 15 -50 37 -67 65c-17 27 -25 56 -25 88c0 53 17 97 52 132s78 53 128 53c33 0 64 -8 92 -24c29 -17 50 -40 65 -67c16 -29 24 -60 24 -94c0 -33 -8 -62 -25 -89c-17 -28 -39 -50 -67 -65z" />
    <glyph glyph-name="Agrave" unicode="&#xc0;" horiz-adv-x="1613" 
d="M921 514h-279l140 252zM1065 252l139 -252h359l-602 1093l-179 326l-180 -326l-602 -1093h359l139 252h567zM323 1940l218 -403h221l-144 403h-295z" />
    <glyph glyph-name="Aacute" unicode="&#xc1;" horiz-adv-x="1613" 
d="M921 514h-279l140 252zM1065 252l139 -252h359l-602 1093l-179 326l-180 -326l-602 -1093h359l139 252h567zM1033 1537l218 403h-295l-144 -403h221z" />
    <glyph glyph-name="Acircumflex" unicode="&#xc2;" horiz-adv-x="1613" 
d="M921 514h-279l140 252zM1065 252l139 -252h359l-602 1093l-179 326l-180 -326l-602 -1093h359l139 252h567zM923 1537h251l-374 467l-391 -467h241l136 153z" />
    <glyph glyph-name="Atilde" unicode="&#xc3;" horiz-adv-x="1613" 
d="M921 514h-279l140 252zM1065 252l139 -252h359l-602 1093l-179 326l-180 -326l-602 -1093h359l139 252h567zM1056 1867h165c-15 -101 -45 -178 -89 -232c-45 -55 -113 -82 -204 -82c-35 0 -91 15 -169 44c-69 30 -119 45 -151 45c-25 0 -46 -10 -65 -31
c-20 -21 -32 -45 -37 -74h-163c7 85 36 156 87 215s114 88 191 88c43 0 105 -8 187 -23c82 -32 134 -48 155 -48c45 0 76 33 93 98z" />
    <glyph glyph-name="Adieresis" unicode="&#xc4;" horiz-adv-x="1613" 
d="M921 514h-279l140 252zM1065 252l139 -252h359l-602 1093l-179 326l-180 -326l-602 -1093h359l139 252h567zM899 1629c-16 28 -24 58 -24 89c0 33 8 62 25 89c16 27 38 49 65 66s56 25 88 25c53 0 97 -17 132 -52s53 -78 53 -128c0 -33 -8 -64 -24 -91
c-16 -28 -38 -50 -67 -66s-60 -24 -94 -24c-33 0 -62 8 -89 25c-28 17 -50 39 -65 67zM369 1629c-16 28 -24 58 -24 89c0 33 8 62 25 89c16 27 38 49 65 66s56 25 88 25c53 0 97 -17 132 -52s53 -78 53 -128c0 -33 -8 -64 -24 -91c-16 -28 -38 -50 -67 -66s-60 -24 -94 -24
c-33 0 -62 8 -89 25c-28 17 -50 39 -65 67z" />
    <glyph glyph-name="Aring" unicode="&#xc5;" horiz-adv-x="1613" 
d="M642 514h279l-139 252zM803 1380l158 -287l602 -1093h-359l-139 252h-567l-139 -252h-359l602 1093l158 287c-55 5 -102 27 -141 66c-45 45 -67 99 -67 162c0 64 22 118 67 163s99 67 163 67c63 0 117 -22 162 -67s67 -99 67 -163c0 -63 -22 -117 -67 -162
c-39 -39 -86 -61 -141 -66zM721 1616c0 -16 6 -30 18 -41c11 -11 25 -17 41 -17c15 0 29 6 42 17c11 11 17 25 17 41c0 17 -6 31 -17 42c-13 11 -27 17 -42 17c-16 0 -30 -6 -41 -17c-12 -11 -18 -25 -18 -42z" />
    <glyph glyph-name="AE" unicode="&#xc6;" horiz-adv-x="2066" 
d="M840 517h274v348zM633 253v1l-200 -254h-433l1114 1419h862l-2 -301h-512v-246h281l81 -299h-362v-274h554l-1 -299h-901v253h-481z" />
    <glyph glyph-name="Ccedilla" unicode="&#xc7;" horiz-adv-x="1252" 
d="M610 -25l-70 -143c50 -2 85 -10 105 -24c19 -13 28 -28 28 -45s-10 -32 -29 -45c-21 -15 -47 -22 -80 -22c-35 0 -68 12 -99 36l-71 -92c55 -31 111 -46 170 -46c67 0 124 16 171 48c49 33 74 74 74 121c0 32 -12 62 -35 89c-22 25 -45 42 -70 51l44 68
c107 7 207 40 302 97c57 35 107 77 152 126l-229 237c-28 -34 -57 -61 -86 -81c-57 -39 -120 -59 -187 -59s-130 20 -187 59s-103 91 -137 156s-51 133 -51 204s17 139 50 204c34 65 80 117 137 156c59 39 122 59 188 59s129 -20 188 -59c25 -16 52 -42 83 -77l229 237
c-43 47 -93 89 -150 124c-107 66 -223 99 -350 99c-126 0 -243 -33 -350 -99c-107 -67 -193 -157 -256 -270s-94 -237 -94 -374c0 -136 31 -260 94 -373c63 -112 148 -202 256 -269c81 -50 168 -81 260 -93z" />
    <glyph glyph-name="Egrave" unicode="&#xc8;" horiz-adv-x="951" 
d="M899 299l2 -299h-901v1419h859l-3 -301h-508v-246h281l81 -299h-362v-274h551zM157 1940l218 -403h221l-144 403h-295z" />
    <glyph glyph-name="Eacute" unicode="&#xc9;" horiz-adv-x="951" 
d="M899 299l2 -299h-901v1419h859l-3 -301h-508v-246h281l81 -299h-362v-274h551zM558 1538l218 403h-295l-144 -403h221z" />
    <glyph glyph-name="Ecircumflex" unicode="&#xca;" horiz-adv-x="951" 
d="M899 299l2 -299h-901v1419h859l-3 -301h-508v-246h281l81 -299h-362v-274h551zM582 1538h251l-374 466l-392 -466h242l136 153z" />
    <glyph glyph-name="Edieresis" unicode="&#xcb;" horiz-adv-x="951" 
d="M899 299l2 -299h-901v1419h859l-3 -301h-508v-246h281l81 -299h-362v-274h551zM558 1631c-16 28 -24 58 -24 89c0 33 8 62 25 89c16 27 38 49 65 66s56 25 88 25c53 0 97 -17 132 -52s53 -78 53 -128c0 -33 -8 -64 -24 -91c-16 -28 -38 -50 -67 -66s-60 -24 -94 -24
c-33 0 -62 8 -89 25c-28 17 -50 39 -65 67zM28 1631c-16 28 -24 58 -24 89c0 33 8 62 25 89c16 27 38 49 65 66s56 25 88 25c53 0 97 -17 132 -52s53 -78 53 -128c0 -33 -8 -64 -24 -91c-16 -28 -38 -50 -67 -66s-60 -24 -94 -24c-33 0 -62 8 -89 25c-28 17 -50 39 -65 67z
" />
    <glyph glyph-name="Igrave" unicode="&#xcc;" horiz-adv-x="517" 
d="M1 1v1417h348v-1418zM-118 1939l218 -403h221l-144 403h-295z" />
    <glyph glyph-name="Iacute" unicode="&#xcd;" horiz-adv-x="517" 
d="M0 1v1417h348v-1418zM249 1536l218 403h-295l-144 -403h221z" />
    <glyph glyph-name="Icircumflex" unicode="&#xce;" horiz-adv-x="816" 
d="M-2 1v1417h348v-1418zM303 1539h252l-375 467l-391 -467h242l136 153z" />
    <glyph glyph-name="Idieresis" unicode="&#xcf;" horiz-adv-x="943" 
d="M2 1v1417h348v-1418zM289 1628c-16 28 -24 58 -24 89c0 33 8 62 25 89c16 27 38 49 65 66s56 25 88 25c53 0 97 -17 132 -52s53 -78 53 -128c0 -33 -8 -64 -24 -91c-16 -28 -38 -50 -67 -66s-60 -24 -94 -24c-33 0 -62 8 -89 25c-28 17 -50 39 -65 67zM-241 1628
c-16 28 -24 58 -24 89c0 33 8 62 25 89c16 27 38 49 65 66s56 25 88 25c53 0 97 -17 132 -52s53 -78 53 -128c0 -33 -8 -64 -24 -91c-16 -28 -38 -50 -67 -66s-60 -24 -94 -24c-33 0 -62 8 -89 25c-28 17 -50 39 -65 67z" />
    <glyph glyph-name="Eth" unicode="&#xd0;" horiz-adv-x="1460" 
d="M663 570h-148v-270h113c57 0 112 11 164 33c51 22 96 52 135 91s69 83 90 132c21 47 31 99 31 154c0 51 -11 103 -32 156c-22 50 -51 93 -88 130s-82 66 -135 89c-53 22 -108 33 -165 33h-113v-267h148v-281zM0 851h153v569h507c104 0 201 -18 292 -54
c89 -35 168 -84 239 -149c68 -64 122 -140 161 -227c39 -86 58 -179 58 -280c0 -100 -19 -193 -58 -278c-39 -87 -93 -163 -161 -227c-69 -64 -149 -114 -240 -150s-188 -54 -291 -54h-507v569h-153v281z" />
    <glyph glyph-name="Ntilde" unicode="&#xd1;" horiz-adv-x="1302" 
d="M1252 1417l-4 -1418l-899 735l1 -731h-350l4 1416l900 -655v655zM934 1869h165c-15 -101 -45 -178 -89 -232c-44 -55 -112 -82 -203 -82c-35 0 -91 15 -169 44c-70 30 -121 45 -152 45c-25 0 -46 -10 -65 -31c-20 -21 -32 -45 -36 -74h-164c7 84 37 156 88 215
s114 88 191 88c43 0 105 -8 186 -23c82 -32 134 -48 156 -48c45 0 76 33 92 98z" />
    <glyph glyph-name="Ograve" unicode="&#xd2;" horiz-adv-x="1549" 
d="M402 913c-36 -65 -54 -133 -54 -204s18 -139 55 -204c37 -66 86 -118 146 -157c61 -39 128 -59 201 -59c72 0 139 20 200 59s110 92 147 157c36 65 54 133 54 204s-18 139 -54 204s-85 117 -146 156c-63 39 -130 59 -201 59c-73 0 -140 -20 -201 -59
c-62 -39 -111 -91 -147 -156zM1398 1083c67 -115 101 -240 101 -374c0 -135 -34 -260 -101 -373c-67 -114 -158 -204 -273 -270s-240 -99 -375 -99s-260 33 -375 99c-115 67 -207 157 -274 270s-101 238 -101 373c0 134 34 259 101 374c67 113 159 203 274 270
c115 66 240 99 375 99s260 -33 375 -99c115 -67 206 -157 273 -270zM457 1940l218 -403h221l-144 403h-295z" />
    <glyph glyph-name="Oacute" unicode="&#xd3;" horiz-adv-x="1549" 
d="M402 913c-36 -65 -54 -133 -54 -204s18 -139 55 -204c37 -66 86 -118 146 -157c61 -39 128 -59 201 -59c72 0 139 20 200 59s110 92 147 157c36 65 54 133 54 204s-18 139 -54 204s-85 117 -146 156c-63 39 -130 59 -201 59c-73 0 -140 -20 -201 -59
c-62 -39 -111 -91 -147 -156zM1398 1083c67 -115 101 -240 101 -374c0 -135 -34 -260 -101 -373c-67 -114 -158 -204 -273 -270s-240 -99 -375 -99s-260 33 -375 99c-115 67 -207 157 -274 270s-101 238 -101 373c0 134 34 259 101 374c67 113 159 203 274 270
c115 66 240 99 375 99s260 -33 375 -99c115 -67 206 -157 273 -270zM893 1537l218 403h-295l-144 -403h221z" />
    <glyph glyph-name="Ocircumflex" unicode="&#xd4;" horiz-adv-x="1549" 
d="M402 913c-36 -65 -54 -133 -54 -204s18 -139 55 -204c37 -66 86 -118 146 -157c61 -39 128 -59 201 -59c72 0 139 20 200 59s110 92 147 157c36 65 54 133 54 204s-18 139 -54 204s-85 117 -146 156c-63 39 -130 59 -201 59c-73 0 -140 -20 -201 -59
c-62 -39 -111 -91 -147 -156zM1398 1083c67 -115 101 -240 101 -374c0 -135 -34 -260 -101 -373c-67 -114 -158 -204 -273 -270s-240 -99 -375 -99s-260 33 -375 99c-115 67 -207 157 -274 270s-101 238 -101 373c0 134 34 259 101 374c67 113 159 203 274 270
c115 66 240 99 375 99s260 -33 375 -99c115 -67 206 -157 273 -270zM881 1537h251l-374 467l-391 -467h241l136 153z" />
    <glyph glyph-name="Otilde" unicode="&#xd5;" horiz-adv-x="1549" 
d="M402 913c-36 -65 -54 -133 -54 -204s18 -139 55 -204c37 -66 86 -118 146 -157c61 -39 128 -59 201 -59c72 0 139 20 200 59s110 92 147 157c36 65 54 133 54 204s-18 139 -54 204s-85 117 -146 156c-63 39 -130 59 -201 59c-73 0 -140 -20 -201 -59
c-62 -39 -111 -91 -147 -156zM1398 1083c67 -115 101 -240 101 -374c0 -135 -34 -260 -101 -373c-67 -114 -158 -204 -273 -270s-240 -99 -375 -99s-260 33 -375 99c-115 67 -207 157 -274 270s-101 238 -101 373c0 134 34 259 101 374c67 113 159 203 274 270
c115 66 240 99 375 99s260 -33 375 -99c115 -67 206 -157 273 -270zM1024 1869h165c-15 -101 -45 -178 -89 -232c-45 -55 -113 -82 -204 -82c-35 0 -91 15 -169 44c-69 30 -119 45 -151 45c-25 0 -46 -10 -65 -31c-20 -21 -32 -45 -37 -74h-163c7 85 36 156 87 215
s114 88 191 88c43 0 105 -8 187 -23c82 -32 134 -48 155 -48c45 0 76 33 93 98z" />
    <glyph glyph-name="Odieresis" unicode="&#xd6;" horiz-adv-x="1549" 
d="M402 913c-36 -65 -54 -133 -54 -204s18 -139 55 -204c37 -66 86 -118 146 -157c61 -39 128 -59 201 -59c72 0 139 20 200 59s110 92 147 157c36 65 54 133 54 204s-18 139 -54 204s-85 117 -146 156c-63 39 -130 59 -201 59c-73 0 -140 -20 -201 -59
c-62 -39 -111 -91 -147 -156zM1398 1083c67 -115 101 -240 101 -374c0 -135 -34 -260 -101 -373c-67 -114 -158 -204 -273 -270s-240 -99 -375 -99s-260 33 -375 99c-115 67 -207 157 -274 270s-101 238 -101 373c0 134 34 259 101 374c67 113 159 203 274 270
c115 66 240 99 375 99s260 -33 375 -99c115 -67 206 -157 273 -270zM857 1629c-16 28 -24 58 -24 89c0 33 8 62 25 89c16 27 38 49 65 66s56 25 88 25c53 0 97 -17 132 -52s53 -78 53 -128c0 -33 -8 -64 -24 -91c-16 -28 -38 -50 -67 -66s-60 -24 -94 -24
c-33 0 -62 8 -89 25c-28 17 -50 39 -65 67zM327 1629c-16 28 -24 58 -24 89c0 33 8 62 25 89c16 27 38 49 65 66s56 25 88 25c53 0 97 -17 132 -52s53 -78 53 -128c0 -33 -8 -64 -24 -91c-16 -28 -38 -50 -67 -66s-60 -24 -94 -24c-33 0 -62 8 -89 25c-28 17 -50 39 -65 67z
" />
    <glyph glyph-name="multiply" unicode="&#xd7;" horiz-adv-x="981" 
d="M928 818l-285 -284l288 -289l-176 -177l-289 289l-285 -286l-178 178l286 285l-289 289l177 176l289 -288l284 285z" />
    <glyph glyph-name="Oslash" unicode="&#xd8;" horiz-adv-x="1549" 
d="M26 90l142 150c-23 27 -45 59 -67 96c-67 113 -101 238 -101 373c0 134 34 259 101 374c67 113 159 203 274 270c115 66 240 99 375 99s260 -33 375 -99c21 -13 41 -26 60 -39l142 150l116 -110l-138 -146c35 -37 66 -78 93 -125c67 -115 101 -240 101 -374
c0 -135 -34 -260 -101 -373c-67 -114 -158 -204 -273 -270s-240 -99 -375 -99s-260 33 -375 99c-39 23 -70 43 -93 62l-140 -148zM1068 958l-554 -585l35 -25c61 -39 128 -59 201 -59c72 0 139 20 200 59s110 92 147 157c36 65 54 133 54 204s-18 139 -54 204
c-5 9 -11 18 -16 26zM409 494l543 574l-1 1c-63 39 -130 59 -201 59c-73 0 -140 -20 -201 -59c-62 -39 -111 -91 -147 -156s-54 -133 -54 -204s18 -139 55 -204c1 -4 3 -8 6 -11z" />
    <glyph glyph-name="Ugrave" unicode="&#xd9;" horiz-adv-x="1216" 
d="M818 1419l348 -1v-926c0 -107 -26 -201 -78 -280c-52 -80 -124 -141 -215 -182c-92 -42 -197 -63 -316 -63c-111 0 -209 18 -292 54c-84 36 -149 91 -195 166c-47 75 -70 168 -70 280v952l349 -1v-851c0 -57 6 -104 19 -143c13 -42 36 -75 68 -98c31 -25 74 -37 130 -37
c103 0 171 30 204 91c32 61 48 149 48 263v776zM290 1940l218 -403h221l-144 403h-295z" />
    <glyph glyph-name="Uacute" unicode="&#xda;" horiz-adv-x="1216" 
d="M818 1419l348 -1v-926c0 -107 -26 -201 -78 -280c-52 -80 -124 -141 -215 -182c-92 -42 -197 -63 -316 -63c-111 0 -209 18 -292 54c-84 36 -149 91 -195 166c-47 75 -70 168 -70 280v952l349 -1v-851c0 -57 6 -104 19 -143c13 -42 36 -75 68 -98c31 -25 74 -37 130 -37
c103 0 171 30 204 91c32 61 48 149 48 263v776zM730 1567l218 403h-295l-144 -403h221z" />
    <glyph glyph-name="Ucircumflex" unicode="&#xdb;" horiz-adv-x="1216" 
d="M818 1419l348 -1v-926c0 -107 -26 -201 -78 -280c-52 -80 -124 -141 -215 -182c-92 -42 -197 -63 -316 -63c-111 0 -209 18 -292 54c-84 36 -149 91 -195 166c-47 75 -70 168 -70 280v952l349 -1v-851c0 -57 6 -104 19 -143c13 -42 36 -75 68 -98c31 -25 74 -37 130 -37
c103 0 171 30 204 91c32 61 48 149 48 263v776zM724 1537h252l-375 467l-391 -467h242l136 153z" />
    <glyph glyph-name="Udieresis" unicode="&#xdc;" horiz-adv-x="1216" 
d="M818 1419l348 -1v-926c0 -107 -26 -201 -78 -280c-52 -80 -124 -141 -215 -182c-92 -42 -197 -63 -316 -63c-111 0 -209 18 -292 54c-84 36 -149 91 -195 166c-47 75 -70 168 -70 280v952l349 -1v-851c0 -57 6 -104 19 -143c13 -42 36 -75 68 -98c31 -25 74 -37 130 -37
c103 0 171 30 204 91c32 61 48 149 48 263v776zM691 1630c-16 28 -24 58 -24 89c0 33 8 62 25 89c16 27 38 49 65 66s56 25 88 25c53 0 97 -17 132 -52s53 -78 53 -128c0 -33 -8 -64 -24 -91c-16 -28 -38 -50 -67 -66s-60 -24 -94 -24c-33 0 -62 8 -89 25
c-28 17 -50 39 -65 67zM161 1630c-16 28 -24 58 -24 89c0 33 8 62 25 89c16 27 38 49 65 66s56 25 88 25c53 0 97 -17 132 -52s53 -78 53 -128c0 -33 -8 -64 -24 -91c-16 -28 -38 -50 -67 -66s-60 -24 -94 -24c-33 0 -62 8 -89 25c-28 17 -50 39 -65 67z" />
    <glyph glyph-name="Yacute" unicode="&#xdd;" horiz-adv-x="1300" 
d="M814 657l436 762h-404l-219 -419l-220 419h-407l446 -765v-654h368v657zM730 1536l218 403h-295l-144 -403h221z" />
    <glyph glyph-name="Thorn" unicode="&#xde;" horiz-adv-x="1193" 
d="M556 882h-208v-326h271c39 0 75 5 107 14c29 9 52 24 68 45s24 51 24 90c0 73 -21 120 -64 143s-109 34 -198 34zM348 1418v-189h333c94 0 176 -23 247 -69c71 -45 124 -108 161 -189c36 -81 54 -172 54 -274c0 -94 -16 -178 -47 -253c-32 -75 -81 -132 -148 -173
s-150 -62 -247 -62h-353v-209l-348 1v1417h348z" />
    <glyph glyph-name="germandbls" unicode="&#xdf;" horiz-adv-x="1248" 
d="M29 1022h-117v-160h117v-863l311 -1l-1 969v83h1v10l1 3v2c1 11 3 19 5 23l6 22c15 35 37 64 67 86c31 23 66 34 106 34c125 -7 191 -72 198 -193c13 -136 -71 -204 -252 -204v-235l15 1h13c13 0 22 0 25 1h52c63 0 113 -9 150 -28s55 -56 55 -111s-17 -97 -50 -124
c-35 -27 -78 -41 -129 -41c-49 0 -91 11 -126 34c-11 7 -21 14 -32 23v-332c55 -17 109 -26 160 -26c67 0 130 8 188 25c58 15 112 40 163 77c48 35 86 80 114 135c27 56 41 121 41 194c0 44 -7 86 -22 125c-15 41 -36 77 -63 110s-60 60 -97 81c44 40 76 80 95 119
c19 43 29 91 29 146c0 81 -14 148 -43 203c-29 53 -69 108 -120 163c-83 86 -195 130 -334 132h-51c-63 0 -125 -11 -186 -34c-67 -25 -120 -57 -159 -98c-86 -89 -129 -195 -129 -320z" />
    <glyph glyph-name="Agrave" unicode="&#xe0;" 
d="M303 1560l218 -403h221l-144 403h-295zM586 775c47 0 91 -11 132 -34c40 -23 73 -54 99 -94c25 -39 37 -82 37 -129c0 -71 -27 -132 -80 -183s-115 -76 -188 -76c-72 0 -134 25 -187 76s-80 112 -80 183c0 47 12 90 37 129c26 40 59 71 99 94c41 23 84 34 131 34zM855 30
v-30l317 -3l1 521c0 77 -16 150 -47 218c-31 65 -75 123 -130 174c-53 49 -115 87 -188 114c-71 27 -145 40 -222 40c-76 0 -150 -14 -222 -41c-71 -26 -133 -64 -188 -113s-98 -107 -129 -174c-31 -68 -47 -141 -47 -218c0 -103 27 -197 81 -281c53 -83 125 -148 216 -196
c91 -47 188 -71 289 -71c76 0 150 14 222 41c6 2 22 8 47 19z" />
    <glyph glyph-name="Aacute" unicode="&#xe1;" 
d="M699 1157l218 403h-295l-144 -403h221zM586 775c47 0 91 -11 132 -34c40 -23 73 -54 99 -94c25 -39 37 -82 37 -129c0 -71 -27 -132 -80 -183s-115 -76 -188 -76c-72 0 -134 25 -187 76s-80 112 -80 183c0 47 12 90 37 129c26 40 59 71 99 94c41 23 84 34 131 34zM855 30
v-30l317 -3l1 521c0 77 -16 150 -47 218c-31 65 -75 123 -130 174c-53 49 -115 87 -188 114c-71 27 -145 40 -222 40c-76 0 -150 -14 -222 -41c-71 -26 -133 -64 -188 -113s-98 -107 -129 -174c-31 -68 -47 -141 -47 -218c0 -103 27 -197 81 -281c53 -83 125 -148 216 -196
c91 -47 188 -71 289 -71c76 0 150 14 222 41c6 2 22 8 47 19z" />
    <glyph glyph-name="Acircumflex" unicode="&#xe2;" 
d="M753 1157h251l-374 467l-391 -467h241l136 153zM586 775c47 0 91 -11 132 -34c40 -23 73 -54 99 -94c25 -39 37 -82 37 -129c0 -71 -27 -132 -80 -183s-115 -76 -188 -76c-72 0 -134 25 -187 76s-80 112 -80 183c0 47 12 90 37 129c26 40 59 71 99 94c41 23 84 34 131 34
zM855 30v-30l317 -3l1 521c0 77 -16 150 -47 218c-31 65 -75 123 -130 174c-53 49 -115 87 -188 114c-71 27 -145 40 -222 40c-76 0 -150 -14 -222 -41c-71 -26 -133 -64 -188 -113s-98 -107 -129 -174c-31 -68 -47 -141 -47 -218c0 -103 27 -197 81 -281
c53 -83 125 -148 216 -196c91 -47 188 -71 289 -71c76 0 150 14 222 41c6 2 22 8 47 19z" />
    <glyph glyph-name="Atilde" unicode="&#xe3;" 
d="M874 1488h165c-15 -101 -45 -178 -89 -232c-45 -55 -113 -82 -204 -82c-35 0 -91 15 -169 44c-69 30 -119 45 -151 45c-25 0 -46 -10 -65 -31c-20 -21 -32 -45 -37 -74h-163c7 85 36 156 87 215s114 88 191 88c43 0 105 -8 187 -23c82 -32 134 -48 155 -48
c45 0 76 33 93 98zM586 775c47 0 91 -11 132 -34c40 -23 73 -54 99 -94c25 -39 37 -82 37 -129c0 -71 -27 -132 -80 -183s-115 -76 -188 -76c-72 0 -134 25 -187 76s-80 112 -80 183c0 47 12 90 37 129c26 40 59 71 99 94c41 23 84 34 131 34zM855 30v-30l317 -3l1 521
c0 77 -16 150 -47 218c-31 65 -75 123 -130 174c-53 49 -115 87 -188 114c-71 27 -145 40 -222 40c-76 0 -150 -14 -222 -41c-71 -26 -133 -64 -188 -113s-98 -107 -129 -174c-31 -68 -47 -141 -47 -218c0 -103 27 -197 81 -281c53 -83 125 -148 216 -196
c91 -47 188 -71 289 -71c76 0 150 14 222 41c6 2 22 8 47 19z" />
    <glyph glyph-name="Adieresis" unicode="&#xe4;" 
d="M685 1249c-16 28 -24 58 -24 89c0 33 8 62 25 89c16 27 38 49 65 66s56 25 88 25c53 0 97 -17 132 -52s53 -78 53 -128c0 -33 -8 -64 -24 -91c-16 -28 -38 -50 -67 -66s-60 -24 -94 -24c-33 0 -62 8 -89 25c-28 17 -50 39 -65 67zM155 1249c-16 28 -24 58 -24 89
c0 33 8 62 25 89c16 27 38 49 65 66s56 25 88 25c53 0 97 -17 132 -52s53 -78 53 -128c0 -33 -8 -64 -24 -91c-16 -28 -38 -50 -67 -66s-60 -24 -94 -24c-33 0 -62 8 -89 25c-28 17 -50 39 -65 67zM586 775c47 0 91 -11 132 -34c40 -23 73 -54 99 -94c25 -39 37 -82 37 -129
c0 -71 -27 -132 -80 -183s-115 -76 -188 -76c-72 0 -134 25 -187 76s-80 112 -80 183c0 47 12 90 37 129c26 40 59 71 99 94c41 23 84 34 131 34zM855 30v-30l317 -3l1 521c0 77 -16 150 -47 218c-31 65 -75 123 -130 174c-53 49 -115 87 -188 114c-71 27 -145 40 -222 40
c-76 0 -150 -14 -222 -41c-71 -26 -133 -64 -188 -113s-98 -107 -129 -174c-31 -68 -47 -141 -47 -218c0 -103 27 -197 81 -281c53 -83 125 -148 216 -196c91 -47 188 -71 289 -71c76 0 150 14 222 41c6 2 22 8 47 19z" />
    <glyph glyph-name="Aring" unicode="&#xe5;" 
d="M774 1222c-45 -45 -99 -67 -162 -67c-64 0 -118 22 -163 67s-67 99 -67 162c0 64 22 118 67 163s99 67 163 67c63 0 117 -22 162 -67s67 -99 67 -163c0 -63 -22 -117 -67 -162zM554 1388c0 -16 6 -30 18 -41c11 -11 25 -17 41 -17c15 0 29 6 42 17c11 11 17 25 17 41
c0 17 -6 31 -17 42c-13 11 -27 17 -42 17c-16 0 -30 -6 -41 -17c-12 -11 -18 -25 -18 -42zM586 775c47 0 91 -11 132 -34c40 -23 73 -54 99 -94c25 -39 37 -82 37 -129c0 -71 -27 -132 -80 -183s-115 -76 -188 -76c-72 0 -134 25 -187 76s-80 112 -80 183c0 47 12 90 37 129
c26 40 59 71 99 94c41 23 84 34 131 34zM855 30v-30l317 -3l1 521c0 77 -16 150 -47 218c-31 65 -75 123 -130 174c-53 49 -115 87 -188 114c-71 27 -145 40 -222 40c-76 0 -150 -14 -222 -41c-71 -26 -133 -64 -188 -113s-98 -107 -129 -174c-31 -68 -47 -141 -47 -218
c0 -103 27 -197 81 -281c53 -83 125 -148 216 -196c91 -47 188 -71 289 -71c76 0 150 14 222 41c6 2 22 8 47 19z" />
    <glyph glyph-name="AE" unicode="&#xe6;" horiz-adv-x="1806" 
d="M1390 708h-392c23 28 46 49 70 64c39 23 81 35 126 35s87 -12 126 -35c24 -15 47 -36 70 -64zM449 435l115 16v-31c0 -43 -11 -79 -33 -106s-51 -40 -87 -40c-26 0 -46 7 -60 22c-14 14 -21 33 -21 56c0 45 29 73 86 83zM121 1029v-283c127 67 233 95 318 85
c49 0 90 -11 121 -32c30 -22 45 -50 45 -84l-254 -34c-234 -33 -351 -152 -351 -357c0 -99 39 -187 117 -264c77 -77 220 -106 427 -87c115 10 207 60 275 149c28 -25 61 -48 98 -69c85 -49 177 -73 277 -73c73 0 143 14 212 41c49 21 99 52 150 94l-172 252l-2 -2l-3 -4
l-3 -4l-2 -2c-51 -52 -111 -78 -180 -78s-129 26 -180 78c-41 41 -65 90 -73 149h688v2h124l2 18c1 2 1 6 1 11v9c0 79 -15 153 -45 222s-71 129 -124 180s-113 90 -181 117c-69 27 -139 41 -212 41c-72 0 -143 -14 -213 -41c-55 -22 -105 -52 -149 -90l-12 12
c-79 75 -187 113 -322 113c-150 0 -276 -23 -377 -69z" />
    <glyph glyph-name="Ccedilla" unicode="&#xe7;" horiz-adv-x="1015" 
d="M421 -138l55 113c-74 11 -141 33 -201 68c-89 51 -157 118 -204 201s-71 173 -71 270c0 89 14 168 43 238c29 72 69 134 121 186c51 51 113 91 185 120c72 28 150 42 233 42c68 0 134 -11 199 -33c65 -23 123 -55 173 -96l-166 -234c-29 25 -60 43 -94 55
c-34 13 -71 19 -112 19c-73 0 -135 -24 -186 -73s-77 -110 -77 -183c0 -56 11 -107 33 -152c21 -45 53 -81 95 -107c41 -27 88 -40 141 -40c79 0 146 26 202 78l175 -230c-25 -28 -61 -53 -106 -74c-47 -22 -95 -38 -142 -47c-40 -9 -77 -14 -110 -15l-22 -35
c25 -9 48 -26 70 -51c23 -27 35 -57 35 -89c0 -47 -25 -88 -74 -121c-47 -32 -104 -48 -171 -48c-59 0 -115 15 -170 46l71 92c31 -24 64 -36 99 -36c33 0 59 7 80 22c19 13 29 28 29 45s-9 32 -28 45c-20 14 -55 22 -105 24z" />
    <glyph glyph-name="Egrave" unicode="&#xe8;" horiz-adv-x="1174" 
d="M269 1561l218 -403h221l-144 403h-295zM758 679h-392c22 26 45 47 70 62c39 23 81 34 126 34s87 -11 126 -34c25 -15 48 -36 70 -62zM774 1024c-67 27 -138 40 -212 40s-145 -13 -213 -40c-67 -26 -127 -64 -180 -115c-53 -49 -94 -107 -124 -174
c-30 -66 -45 -138 -45 -216c0 -104 26 -198 78 -281c51 -83 120 -149 207 -197c85 -47 178 -71 277 -71c74 0 145 13 212 40c52 21 102 52 150 91l-172 246l-2 -3l-3 -3l-3 -4l-2 -2c-51 -51 -111 -76 -180 -76s-129 25 -180 76c-41 41 -65 89 -73 145h688v2h124l2 17l1 6
v14c0 77 -15 149 -45 216c-30 68 -71 126 -124 175s-113 87 -181 114z" />
    <glyph glyph-name="Eacute" unicode="&#xe9;" horiz-adv-x="1174" 
d="M675 1158l218 403h-295l-144 -403h221zM758 679h-392c22 26 45 47 70 62c39 23 81 34 126 34s87 -11 126 -34c25 -15 48 -36 70 -62zM774 1024c-67 27 -138 40 -212 40s-145 -13 -213 -40c-67 -26 -127 -64 -180 -115c-53 -49 -94 -107 -124 -174
c-30 -66 -45 -138 -45 -216c0 -104 26 -198 78 -281c51 -83 120 -149 207 -197c85 -47 178 -71 277 -71c74 0 145 13 212 40c52 21 102 52 150 91l-172 246l-2 -3l-3 -3l-3 -4l-2 -2c-51 -51 -111 -76 -180 -76s-129 25 -180 76c-41 41 -65 89 -73 145h688v2h124l2 17l1 6
v14c0 77 -15 149 -45 216c-30 68 -71 126 -124 175s-113 87 -181 114z" />
    <glyph glyph-name="Ecircumflex" unicode="&#xea;" horiz-adv-x="1174" 
d="M693 1158h252l-375 467l-391 -467h242l136 153zM758 679h-392c22 26 45 47 70 62c39 23 81 34 126 34s87 -11 126 -34c25 -15 48 -36 70 -62zM774 1024c-67 27 -138 40 -212 40s-145 -13 -213 -40c-67 -26 -127 -64 -180 -115c-53 -49 -94 -107 -124 -174
c-30 -66 -45 -138 -45 -216c0 -104 26 -198 78 -281c51 -83 120 -149 207 -197c85 -47 178 -71 277 -71c74 0 145 13 212 40c52 21 102 52 150 91l-172 246l-2 -3l-3 -3l-3 -4l-2 -2c-51 -51 -111 -76 -180 -76s-129 25 -180 76c-41 41 -65 89 -73 145h688v2h124l2 17l1 6
v14c0 77 -15 149 -45 216c-30 68 -71 126 -124 175s-113 87 -181 114z" />
    <glyph glyph-name="Edieresis" unicode="&#xeb;" horiz-adv-x="1174" 
d="M670 1249c-16 28 -24 58 -24 89c0 33 8 62 25 89c16 27 38 49 65 66s56 25 88 25c53 0 97 -17 132 -52s53 -78 53 -128c0 -33 -8 -64 -24 -91c-16 -28 -38 -50 -67 -66s-60 -24 -94 -24c-33 0 -62 8 -89 25c-28 17 -50 39 -65 67zM140 1249c-16 28 -24 58 -24 89
c0 33 8 62 25 89c16 27 38 49 65 66s56 25 88 25c53 0 97 -17 132 -52s53 -78 53 -128c0 -33 -8 -64 -24 -91c-16 -28 -38 -50 -67 -66s-60 -24 -94 -24c-33 0 -62 8 -89 25c-28 17 -50 39 -65 67zM758 679h-392c22 26 45 47 70 62c39 23 81 34 126 34s87 -11 126 -34
c25 -15 48 -36 70 -62zM774 1024c-67 27 -138 40 -212 40s-145 -13 -213 -40c-67 -26 -127 -64 -180 -115c-53 -49 -94 -107 -124 -174c-30 -66 -45 -138 -45 -216c0 -104 26 -198 78 -281c51 -83 120 -149 207 -197c85 -47 178 -71 277 -71c74 0 145 13 212 40
c52 21 102 52 150 91l-172 246l-2 -3l-3 -3l-3 -4l-2 -2c-51 -51 -111 -76 -180 -76s-129 25 -180 76c-41 41 -65 89 -73 145h688v2h124l2 17l1 6v14c0 77 -15 149 -45 216c-30 68 -71 126 -124 175s-113 87 -181 114z" />
    <glyph glyph-name="Igrave" unicode="&#xec;" horiz-adv-x="525" 
d="M0 1022l319 -3v-1020l-319 -1v1024zM-156 1562l218 -403h221l-144 403h-295z" />
    <glyph glyph-name="Iacute" unicode="&#xed;" horiz-adv-x="521" 
d="M0 1022l319 -3v-1020l-319 -1v1024zM253 1159l218 403h-295l-144 -403h221z" />
    <glyph glyph-name="Icircumflex" unicode="&#xee;" horiz-adv-x="815" 
d="M1 1022l319 -3v-1020l-319 -1v1024zM292 1156h251l-374 467l-391 -467h241l136 153z" />
    <glyph glyph-name="Idieresis" unicode="&#xef;" horiz-adv-x="943" 
d="M-2 1022l319 -3v-1020l-319 -1v1024zM285 1251c-16 28 -24 58 -24 89c0 33 8 62 25 89c16 27 38 49 65 66s56 25 88 25c53 0 97 -17 132 -52s53 -78 53 -128c0 -33 -8 -64 -24 -91c-16 -28 -38 -50 -67 -66s-60 -24 -94 -24c-33 0 -62 8 -89 25c-28 17 -50 39 -65 67z
M-245 1251c-16 28 -24 58 -24 89c0 33 8 62 25 89c16 27 38 49 65 66s56 25 88 25c53 0 97 -17 132 -52s53 -78 53 -128c0 -33 -8 -64 -24 -91c-16 -28 -38 -50 -67 -66s-60 -24 -94 -24c-33 0 -62 8 -89 25c-28 17 -50 39 -65 67z" />
    <glyph glyph-name="Eth" unicode="&#xf0;" 
d="M586 266c73 0 135 26 188 79s80 117 80 190c0 48 -12 92 -37 133s-58 73 -99 97s-85 36 -132 36c-46 0 -90 -12 -131 -36s-74 -56 -99 -97s-37 -85 -37 -133c0 -73 27 -137 80 -190s115 -79 187 -79zM717 1475l-81 -102c326 -209 503 -461 531 -756c4 -27 6 -54 6 -82
c0 -83 -15 -158 -46 -225c-31 -69 -74 -129 -130 -182c-56 -52 -119 -92 -189 -119c-70 -28 -144 -42 -222 -42c-101 0 -198 25 -289 74s-163 116 -216 203c-54 87 -81 184 -81 291c0 79 16 154 47 225c31 69 74 129 129 180s118 91 189 119c67 26 149 42 246 48
c-33 45 -65 82 -97 112l-72 -91l-88 69l79 100c-35 26 -73 46 -114 59l98 140l13 -7l13 -7c11 -5 20 -10 29 -15c24 -12 46 -24 67 -36l90 113z" />
    <glyph glyph-name="Ntilde" unicode="&#xf1;" horiz-adv-x="952" 
d="M713 1488h165c-15 -101 -45 -178 -89 -232c-44 -55 -112 -82 -203 -82c-35 0 -91 15 -169 44c-70 30 -121 45 -152 45c-25 0 -46 -10 -65 -31c-20 -21 -32 -45 -36 -74h-164c7 84 37 156 88 215s114 88 191 88c43 0 105 -8 186 -23c82 -32 134 -48 156 -48
c45 0 76 33 92 98zM442 785h18c81 -3 122 -58 122 -164v-621h320v621c0 281 -147 429 -442 444h-18c-295 -15 -442 -163 -442 -444v-621h320v621c0 106 41 161 122 164z" />
    <glyph glyph-name="Ograve" unicode="&#xf2;" 
d="M294 1561l218 -403h221l-144 403h-295zM81 236c-54 84 -81 178 -81 282c0 77 16 150 47 218s74 126 129 175s118 88 189 115s145 40 221 40c77 0 151 -13 222 -40c70 -25 133 -63 189 -114c55 -51 98 -110 129 -176c31 -68 47 -141 47 -218c0 -80 -15 -153 -46 -218
c-31 -67 -75 -126 -130 -177c-57 -51 -120 -89 -189 -115c-71 -27 -145 -41 -222 -41c-101 0 -198 24 -289 72s-163 114 -216 197zM586 257c72 0 135 26 188 77s80 113 80 184c0 47 -12 90 -37 129c-26 40 -59 71 -99 94c-41 23 -85 35 -132 35c-46 0 -90 -12 -131 -35
c-40 -23 -73 -54 -99 -94c-25 -39 -37 -82 -37 -129c0 -71 27 -133 80 -184s116 -77 187 -77z" />
    <glyph glyph-name="Oacute" unicode="&#xf3;" 
d="M706 1158l218 403h-295l-144 -403h221zM81 236c-54 84 -81 178 -81 282c0 77 16 150 47 218s74 126 129 175s118 88 189 115s145 40 221 40c77 0 151 -13 222 -40c70 -25 133 -63 189 -114c55 -51 98 -110 129 -176c31 -68 47 -141 47 -218c0 -80 -15 -153 -46 -218
c-31 -67 -75 -126 -130 -177c-57 -51 -120 -89 -189 -115c-71 -27 -145 -41 -222 -41c-101 0 -198 24 -289 72s-163 114 -216 197zM586 257c72 0 135 26 188 77s80 113 80 184c0 47 -12 90 -37 129c-26 40 -59 71 -99 94c-41 23 -85 35 -132 35c-46 0 -90 -12 -131 -35
c-40 -23 -73 -54 -99 -94c-25 -39 -37 -82 -37 -129c0 -71 27 -133 80 -184s116 -77 187 -77z" />
    <glyph glyph-name="Ocircumflex" unicode="&#xf4;" 
d="M718 1156h251l-374 467l-391 -467h241l136 153zM81 236c-54 84 -81 178 -81 282c0 77 16 150 47 218s74 126 129 175s118 88 189 115s145 40 221 40c77 0 151 -13 222 -40c70 -25 133 -63 189 -114c55 -51 98 -110 129 -176c31 -68 47 -141 47 -218
c0 -80 -15 -153 -46 -218c-31 -67 -75 -126 -130 -177c-57 -51 -120 -89 -189 -115c-71 -27 -145 -41 -222 -41c-101 0 -198 24 -289 72s-163 114 -216 197zM586 257c72 0 135 26 188 77s80 113 80 184c0 47 -12 90 -37 129c-26 40 -59 71 -99 94c-41 23 -85 35 -132 35
c-46 0 -90 -12 -131 -35c-40 -23 -73 -54 -99 -94c-25 -39 -37 -82 -37 -129c0 -71 27 -133 80 -184s116 -77 187 -77z" />
    <glyph glyph-name="Otilde" unicode="&#xf5;" 
d="M861 1488h165c-15 -101 -45 -178 -89 -232c-45 -55 -113 -82 -204 -82c-35 0 -91 15 -169 44c-69 30 -119 45 -151 45c-25 0 -46 -10 -65 -31c-20 -21 -32 -45 -37 -74h-163c7 85 36 156 87 215s114 88 191 88c43 0 105 -8 187 -23c82 -32 134 -48 155 -48
c45 0 76 33 93 98zM81 236c-54 84 -81 178 -81 282c0 77 16 150 47 218s74 126 129 175s118 88 189 115s145 40 221 40c77 0 151 -13 222 -40c70 -25 133 -63 189 -114c55 -51 98 -110 129 -176c31 -68 47 -141 47 -218c0 -80 -15 -153 -46 -218c-31 -67 -75 -126 -130 -177
c-57 -51 -120 -89 -189 -115c-71 -27 -145 -41 -222 -41c-101 0 -198 24 -289 72s-163 114 -216 197zM586 257c72 0 135 26 188 77s80 113 80 184c0 47 -12 90 -37 129c-26 40 -59 71 -99 94c-41 23 -85 35 -132 35c-46 0 -90 -12 -131 -35c-40 -23 -73 -54 -99 -94
c-25 -39 -37 -82 -37 -129c0 -71 27 -133 80 -184s116 -77 187 -77z" />
    <glyph glyph-name="Odieresis" unicode="&#xf6;" 
d="M694 1251c-16 28 -24 58 -24 89c0 33 8 62 25 89c16 27 38 49 65 66s56 25 88 25c53 0 97 -17 132 -52s53 -78 53 -128c0 -33 -8 -64 -24 -91c-16 -28 -38 -50 -67 -66s-60 -24 -94 -24c-33 0 -62 8 -89 25c-28 17 -50 39 -65 67zM164 1251c-16 28 -24 58 -24 89
c0 33 8 62 25 89c16 27 38 49 65 66s56 25 88 25c53 0 97 -17 132 -52s53 -78 53 -128c0 -33 -8 -64 -24 -91c-16 -28 -38 -50 -67 -66s-60 -24 -94 -24c-33 0 -62 8 -89 25c-28 17 -50 39 -65 67zM81 236c-54 84 -81 178 -81 282c0 77 16 150 47 218s74 126 129 175
s118 88 189 115s145 40 221 40c77 0 151 -13 222 -40c70 -25 133 -63 189 -114c55 -51 98 -110 129 -176c31 -68 47 -141 47 -218c0 -80 -15 -153 -46 -218c-31 -67 -75 -126 -130 -177c-57 -51 -120 -89 -189 -115c-71 -27 -145 -41 -222 -41c-101 0 -198 24 -289 72
s-163 114 -216 197zM586 257c72 0 135 26 188 77s80 113 80 184c0 47 -12 90 -37 129c-26 40 -59 71 -99 94c-41 23 -85 35 -132 35c-46 0 -90 -12 -131 -35c-40 -23 -73 -54 -99 -94c-25 -39 -37 -82 -37 -129c0 -71 27 -133 80 -184s116 -77 187 -77z" />
    <glyph glyph-name="divide" unicode="&#xf7;" horiz-adv-x="1107" 
d="M0 659h1057v-252h-1057v252zM364 797c-16 28 -24 58 -24 89c0 33 8 62 25 89c16 27 38 49 65 66s56 25 88 25c53 0 97 -17 132 -52s53 -78 53 -128c0 -33 -8 -64 -24 -91c-16 -28 -38 -50 -67 -66s-60 -24 -94 -24c-33 0 -62 8 -89 25c-28 17 -50 39 -65 67zM364 87
c-16 28 -24 58 -24 89c0 33 8 62 25 89c16 27 38 49 65 66s56 25 88 25c53 0 97 -17 132 -52s53 -78 53 -128c0 -33 -8 -64 -24 -91c-16 -28 -38 -50 -67 -66s-60 -24 -94 -24c-33 0 -62 8 -89 25c-28 17 -50 39 -65 67z" />
    <glyph glyph-name="Oslash" unicode="&#xf8;" horiz-adv-x="1233" 
d="M355 405l356 346c-38 17 -76 26 -115 26c-46 0 -90 -12 -131 -35c-40 -23 -73 -54 -99 -94c-25 -39 -37 -82 -37 -129c0 -40 9 -78 26 -114zM828 645l-362 -354c39 -23 82 -34 130 -34c72 0 135 26 188 77c53 52 80 114 80 185c0 45 -12 87 -36 126zM934 970l125 121
l114 -110l-120 -116c35 -41 62 -83 83 -128c31 -68 47 -141 47 -218c0 -81 -15 -154 -46 -219c-31 -67 -75 -126 -130 -177c-57 -51 -120 -90 -189 -116c-71 -27 -145 -41 -222 -41c-101 0 -198 24 -289 72c-24 13 -45 25 -62 37l-131 -127l-114 110l129 125
c-7 8 -13 17 -20 28l-10 13l-8 12c-54 85 -81 180 -81 283c0 77 16 150 47 218s74 126 129 175c55 51 118 89 189 116s145 40 221 40c77 0 151 -13 222 -40c44 -17 83 -36 116 -58z" />
    <glyph glyph-name="Ugrave" unicode="&#xf9;" horiz-adv-x="952" 
d="M138 1560l218 -403h221l-144 403h-295zM320 428v596h-320v-596c0 -290 147 -443 442 -459h18c295 16 442 169 442 459v596h-320v-596c0 -109 -41 -166 -122 -169h-18c-81 3 -122 60 -122 169z" />
    <glyph glyph-name="Uacute" unicode="&#xfa;" horiz-adv-x="952" 
d="M559 1159l218 403h-295l-144 -403h221zM320 428v596h-320v-596c0 -290 147 -443 442 -459h18c295 16 442 169 442 459v596h-320v-596c0 -109 -41 -166 -122 -169h-18c-81 3 -122 60 -122 169z" />
    <glyph glyph-name="Ucircumflex" unicode="&#xfb;" horiz-adv-x="952" 
d="M586 1158h252l-375 467l-391 -467h242l136 153zM320 428v596h-320v-596c0 -290 147 -443 442 -459h18c295 16 442 169 442 459v596h-320v-596c0 -109 -41 -166 -122 -169h-18c-81 3 -122 60 -122 169z" />
    <glyph glyph-name="Udieresis" unicode="&#xfc;" horiz-adv-x="953" 
d="M564 1249c-16 28 -24 58 -24 89c0 33 8 62 25 89c16 27 38 49 65 66s56 25 88 25c53 0 97 -17 132 -52s53 -78 53 -128c0 -33 -8 -64 -24 -91c-16 -28 -38 -50 -67 -66s-60 -24 -94 -24c-33 0 -62 8 -89 25c-28 17 -50 39 -65 67zM34 1249c-16 28 -24 58 -24 89
c0 33 8 62 25 89c16 27 38 49 65 66s56 25 88 25c53 0 97 -17 132 -52s53 -78 53 -128c0 -33 -8 -64 -24 -91c-16 -28 -38 -50 -67 -66s-60 -24 -94 -24c-33 0 -62 8 -89 25c-28 17 -50 39 -65 67zM320 428v596h-320v-596c0 -290 147 -443 442 -459h18
c295 16 442 169 442 459v596h-320v-596c0 -109 -41 -166 -122 -169h-18c-81 3 -122 60 -122 169z" />
    <glyph glyph-name="Yacute" unicode="&#xfd;" horiz-adv-x="1038" 
d="M670 -1v-117h-1v-10l-1 -3v-2c-1 -11 -3 -19 -5 -23l-2 -7l-2 -7l-2 -5l-1 -3c-15 -36 -38 -65 -69 -86c-33 -23 -69 -34 -108 -34c-51 0 -94 17 -131 52s-56 77 -59 128l-289 -169c13 -45 48 -97 104 -154c86 -85 200 -129 343 -132h53c65 0 129 11 191 34
c69 25 124 57 165 98c88 89 132 196 132 320v1144l-320 -1v-594c0 -60 -14 -106 -42 -137c-29 -31 -68 -47 -117 -47c-51 0 -90 15 -118 46s-42 77 -42 138v595h-320v-617c0 -321 158 -471 473 -451c81 0 137 15 168 44zM617 1159l218 403h-295l-144 -403h221z" />
    <glyph glyph-name="Thorn" unicode="&#xfe;" horiz-adv-x="1224" 
d="M400 691c53 53 115 79 187 79c73 0 135 -26 188 -79s80 -117 80 -190c0 -48 -12 -92 -37 -133s-58 -73 -99 -97s-85 -36 -132 -36c-46 0 -90 12 -131 36s-74 56 -99 97s-37 85 -37 133c0 73 27 137 80 190zM316 1004v415h-316l1 -1802l319 -1v381l22 -10l23 -10
c73 -27 147 -41 222 -41s149 14 222 41c72 27 135 66 188 119c55 51 99 111 130 180c31 71 47 146 47 225s-16 154 -47 225c-31 70 -75 131 -130 182c-55 53 -118 93 -188 120c-72 27 -146 41 -222 41c-95 0 -186 -22 -271 -65z" />
    <glyph glyph-name="Ydieresis" unicode="&#xff;" horiz-adv-x="1038" 
d="M670 -1v-117h-1v-10l-1 -3v-2c-1 -11 -3 -19 -5 -23l-2 -7l-2 -7l-2 -5l-1 -3c-15 -36 -38 -65 -69 -86c-33 -23 -69 -34 -108 -34c-51 0 -94 17 -131 52s-56 77 -59 128l-289 -169c13 -45 48 -97 104 -154c86 -85 200 -129 343 -132h53c65 0 129 11 191 34
c69 25 124 57 165 98c88 89 132 196 132 320v1144l-320 -1v-594c0 -60 -14 -106 -42 -137c-29 -31 -68 -47 -117 -47c-51 0 -90 15 -118 46s-42 77 -42 138v595h-320v-617c0 -321 158 -471 473 -451c81 0 137 15 168 44zM626 1250c-16 28 -24 58 -24 89c0 33 8 62 25 89
c16 27 38 49 65 66s56 25 88 25c53 0 97 -17 132 -52s53 -78 53 -128c0 -33 -8 -64 -24 -91c-16 -28 -38 -50 -67 -66s-60 -24 -94 -24c-33 0 -62 8 -89 25c-28 17 -50 39 -65 67zM96 1250c-16 28 -24 58 -24 89c0 33 8 62 25 89c16 27 38 49 65 66s56 25 88 25
c53 0 97 -17 132 -52s53 -78 53 -128c0 -33 -8 -64 -24 -91c-16 -28 -38 -50 -67 -66s-60 -24 -94 -24c-33 0 -62 8 -89 25c-28 17 -50 39 -65 67z" />
    <glyph glyph-name="dotlessi" unicode="&#x131;" horiz-adv-x="369" 
d="M0 1022l319 -3v-1020l-319 -1v1024z" />
    <glyph glyph-name="circumflex" unicode="&#x2c6;" horiz-adv-x="816" 
d="M514 1186h252l-375 467l-391 -467h242l136 153z" />
    <glyph glyph-name="caron" unicode="&#x2c7;" horiz-adv-x="816" 
d="M251 1653h-251l375 -467l391 467h-242l-136 -153z" />
    <glyph glyph-name="uni02C9" unicode="&#x2c9;" horiz-adv-x="908" 
d="M0 1670h858v-252h-858v252z" />
    <glyph glyph-name="breve" unicode="&#x2d8;" horiz-adv-x="828" 
d="M778 1765h-239c-7 -37 -23 -66 -48 -87s-59 -32 -100 -32s-75 11 -102 32c-26 21 -42 50 -49 87h-240c1 -66 17 -125 50 -178c34 -54 79 -95 136 -124c60 -29 126 -44 199 -44c117 0 209 30 276 90c67 59 106 145 117 256z" />
    <glyph glyph-name="dotaccent" unicode="&#x2d9;" horiz-adv-x="411" 
d="M92 1513c28 16 58 24 89 24s61 -8 89 -24c27 -17 49 -39 66 -66s25 -56 25 -88c0 -53 -17 -97 -52 -132s-78 -53 -128 -53c-33 0 -64 8 -91 24c-28 16 -50 38 -66 67s-24 61 -24 94s8 62 25 89c17 28 39 50 67 65z" />
    <glyph glyph-name="ring" unicode="&#x2da;" horiz-adv-x="509" 
d="M392 1086c-45 -45 -99 -67 -163 -67c-63 0 -117 22 -162 67s-67 99 -67 162c0 64 22 118 67 163s99 67 162 67c64 0 118 -22 163 -67s67 -99 67 -163c0 -63 -22 -117 -67 -162zM175 1258c0 -16 6 -30 18 -41c11 -11 25 -17 41 -17c15 0 29 6 42 17c11 11 17 25 17 41
c0 17 -6 31 -17 42c-13 11 -27 17 -42 17c-16 0 -30 -6 -41 -17c-12 -11 -18 -25 -18 -42z" />
    <glyph glyph-name="ogonek" unicode="&#x2db;" horiz-adv-x="883" 
d="M437 210l103 -203c-95 -102 -154 -171 -175 -207c-19 -32 -31 -70 -38 -114c-5 -28 4 -52 25 -71c27 -22 64 -31 110 -26c57 5 129 46 216 123l131 -262c-127 -86 -248 -134 -361 -143c-135 -12 -247 18 -334 89c-93 77 -129 175 -110 293c13 73 47 143 102 209
c43 54 154 158 331 312z" />
    <glyph glyph-name="tilde" unicode="&#x2dc;" horiz-adv-x="928" 
d="M713 1620h165c-15 -101 -45 -178 -89 -232c-44 -55 -112 -82 -203 -82c-35 0 -91 15 -169 44c-70 30 -121 45 -152 45c-25 0 -46 -10 -65 -31c-20 -21 -32 -45 -36 -74h-164c7 84 37 156 88 215s114 88 191 88c43 0 105 -8 186 -23c82 -32 134 -48 156 -48
c45 0 76 33 92 98z" />
    <glyph glyph-name="hungarumlaut" unicode="&#x2dd;" horiz-adv-x="829" 
d="M221 1215l218 403h-295l-144 -403h221zM561 1215l218 403h-295l-144 -403h221z" />
    <glyph glyph-name="endash" unicode="&#x2013;" horiz-adv-x="888" 
d="M838 563h-838l2 251h835z" />
    <glyph glyph-name="emdash" unicode="&#x2014;" horiz-adv-x="1157" 
d="M1107 563h-1107l2 251h1104z" />
    <glyph glyph-name="quoteleft" unicode="&#x2018;" horiz-adv-x="417" 
d="M1 1419v114c-9 168 84 267 281 297l1 -99c-31 -8 -56 -17 -77 -28c37 -5 69 -21 97 -48c31 -31 48 -68 50 -111l1 -125h-353z" />
    <glyph glyph-name="quoteright" unicode="&#x2019;" horiz-adv-x="417" 
d="M353 1830v-114c9 -168 -84 -267 -281 -297l-1 99c31 8 56 17 77 28c-37 5 -69 21 -97 48c-31 31 -48 68 -51 111v125h353z" />
    <glyph glyph-name="quotesinglbase" unicode="&#x201a;" horiz-adv-x="417" 
d="M353 313v-114c9 -168 -84 -267 -281 -297l-1 99c31 8 56 17 77 28c-37 5 -69 21 -97 48c-31 31 -48 68 -51 111v125h353z" />
    <glyph glyph-name="quotedblleft" unicode="&#x201c;" horiz-adv-x="817" 
d="M401 1239v114c-9 168 84 267 281 297l1 -99c-31 -8 -56 -17 -77 -28c37 -5 69 -21 97 -48c31 -31 48 -68 50 -111l1 -125h-353zM1 1239v114c-9 168 84 267 281 297l1 -99c-31 -8 -56 -17 -77 -28c37 -5 69 -21 97 -48c31 -31 48 -68 50 -111l1 -125h-353z" />
    <glyph glyph-name="quotedblright" unicode="&#x201d;" horiz-adv-x="817" 
d="M353 1650v-114c9 -168 -84 -267 -281 -297l-1 99c31 8 56 17 77 28c-37 5 -69 21 -97 48c-31 31 -48 68 -51 111v125h353zM753 1650v-114c9 -168 -84 -267 -281 -297l-1 99c31 8 56 17 77 28c-37 5 -69 21 -97 48c-31 31 -48 68 -51 111v125h353z" />
    <glyph glyph-name="quotedblbase" unicode="&#x201e;" horiz-adv-x="817" 
d="M353 313v-114c9 -168 -84 -267 -281 -297l-1 99c31 8 56 17 77 28c-37 5 -69 21 -97 48c-31 31 -48 68 -51 111v125h353zM753 313v-114c9 -168 -84 -267 -281 -297l-1 99c31 8 56 17 77 28c-37 5 -69 21 -97 48c-31 31 -48 68 -51 111v125h353z" />
    <glyph glyph-name="dagger" unicode="&#x2020;" horiz-adv-x="981" 
d="M931 1174h-355v-1453h-225v1453h-351v225h351v373h225v-373h355v-225z" />
    <glyph glyph-name="daggerdbl" unicode="&#x2021;" horiz-adv-x="981" 
d="M0 1399h351v373h225v-373h355v-225h-355v-815h355v-225h-355v-413h-225v413h-351v225h351v815h-351v225z" />
    <glyph glyph-name="bullet" unicode="&#x2022;" horiz-adv-x="381" 
d="M283 637c-33 -33 -72 -49 -118 -49c-45 0 -84 16 -116 49c-33 32 -49 71 -49 116c0 46 16 85 49 118c32 32 71 48 116 48c46 0 85 -16 118 -48c32 -33 48 -72 48 -118c0 -45 -16 -84 -48 -116z" />
    <glyph glyph-name="ellipsis" unicode="&#x2026;" horiz-adv-x="1324" 
d="M92 312c28 16 58 24 89 24s61 -8 89 -24c27 -17 49 -39 66 -66s25 -56 25 -88c0 -53 -17 -97 -52 -132s-78 -53 -128 -53c-33 0 -64 8 -91 24c-28 16 -50 38 -66 67s-24 61 -24 94s8 62 25 89c17 28 39 50 67 65zM547 312c28 16 58 24 89 24s61 -8 89 -24
c27 -17 49 -39 66 -66s25 -56 25 -88c0 -53 -17 -97 -52 -132s-78 -53 -128 -53c-33 0 -64 8 -91 24c-28 16 -50 38 -66 67s-24 61 -24 94s8 62 25 89c17 28 39 50 67 65zM1005 312c28 16 58 24 89 24s61 -8 89 -24c27 -17 49 -39 66 -66s25 -56 25 -88
c0 -53 -17 -97 -52 -132s-78 -53 -128 -53c-33 0 -64 8 -91 24c-28 16 -50 38 -66 67s-24 61 -24 94s8 62 25 89c17 28 39 50 67 65z" />
    <glyph glyph-name="guilsinglleft" unicode="&#x2039;" horiz-adv-x="707" 
d="M400 184h257l-400 530l400 531h-257l-400 -531z" />
    <glyph glyph-name="guilsinglright" unicode="&#x203a;" horiz-adv-x="707" 
d="M0 184h257l400 530l-400 531h-257l400 -531z" />
    <glyph glyph-name="fraction" unicode="&#x2044;" horiz-adv-x="922" 
d="M878 1419l-713 -1419h-159l710 1419h162z" />
    <glyph glyph-name="fraction" unicode="&#x2215;" horiz-adv-x="922" 
d="M878 1419l-713 -1419h-159l710 1419h162z" />
    <glyph glyph-name="franc" unicode="&#x20a3;" horiz-adv-x="1142" 
d="M798 201h-217v-200l-348 1v199h-233v255h233v963h859v-301h-511v-195h366l-4 -299h-362v-168h217v-255z" />
    <glyph glyph-name="lira" unicode="&#x20a4;" horiz-adv-x="882" 
d="M29 270l119 -203c123 72 234 86 332 41c97 -45 207 -24 331 61l21 12l-84 245c-130 -83 -230 -96 -301 -38h1l3 -2l4 -2l12 -6c6 9 14 28 25 59v1h163v160h-155c-7 28 -18 58 -35 90h190v160h-294c-39 64 -52 120 -39 168c16 60 52 87 108 82c55 -5 93 -44 112 -116
l239 101c-15 51 -33 93 -54 125c-31 44 -78 80 -142 107c-52 23 -109 33 -171 30c-59 -3 -115 -17 -168 -42c-68 -33 -121 -86 -160 -159c-31 -59 -39 -134 -25 -226c4 -23 10 -47 18 -70h-79v-160h176c19 -29 34 -59 43 -90h-219v-160h207c-30 -53 -89 -109 -178 -168z" />
    <glyph glyph-name="peseta" unicode="&#x20a7;" horiz-adv-x="2231" 
d="M404 1118h-90v-305h90c58 0 102 13 133 40c31 26 46 64 46 114c0 49 -15 86 -46 112s-75 39 -133 39zM942 753h-93c-23 -46 -52 -85 -89 -118c-45 -41 -95 -71 -152 -91c-61 -21 -122 -32 -185 -32h-109v-512h-314v1419h381c87 0 160 -7 218 -22c62 -15 115 -40 159 -74
c44 -35 78 -82 102 -141c19 -44 30 -97 34 -160h48v397l319 -2v-395h247l-3 -14c27 22 57 40 88 54c62 25 128 38 199 38c41 0 82 -6 124 -18c45 -14 85 -32 122 -53c39 -23 73 -48 104 -77l-176 -180c-51 39 -107 59 -168 59c-73 0 -109 -21 -109 -63c0 -37 27 -64 81 -79
l89 -24l90 -23c65 -17 120 -48 165 -95s67 -120 67 -221c0 -75 -19 -139 -58 -194s-91 -96 -155 -123c-65 -28 -132 -42 -201 -42h-312c-151 0 -257 15 -319 46c-64 31 -112 77 -145 139c-33 61 -49 139 -49 235v366zM1393 753h-132v-341c-6 -100 89 -155 286 -165
c197 -11 309 14 337 75c0 31 -26 53 -79 67l-178 47c-67 18 -122 51 -167 99c-45 47 -67 119 -67 218z" />
    <glyph glyph-name="Euro" unicode="&#x20ac;" horiz-adv-x="971" 
d="M19 949h-168l-54 -181h186c-1 -31 -2 -48 -2 -52c0 -23 0 -38 1 -45h-131l-54 -181h220c15 -42 31 -79 49 -110c57 -103 134 -184 231 -243s203 -89 316 -89c35 0 70 3 105 9v300c-31 -13 -66 -19 -105 -19c-61 0 -118 18 -169 53c-39 25 -71 58 -98 99h312l55 181h-436
c-2 15 -3 30 -3 45c0 21 1 39 4 52h380l55 181h-364c28 38 59 69 94 92c53 36 110 54 170 54c39 0 74 -6 105 -19v302c-35 6 -70 9 -105 9c-113 0 -219 -30 -316 -89c-97 -61 -174 -142 -231 -244c-18 -33 -34 -68 -47 -105z" />
    <glyph glyph-name="numero" unicode="&#x2116;" horiz-adv-x="2158" 
d="M1247 1419l1 -1420l-899 735l1 -731h-350l4 1416l900 -655v655h343zM1382 644c-36 57 -54 122 -54 193c0 51 11 101 32 149c21 47 49 87 86 120c36 34 78 60 125 79c47 18 96 27 147 27c52 0 101 -9 148 -27c47 -17 88 -43 125 -78s65 -75 86 -121c21 -44 31 -94 31 -149
c0 -56 -10 -106 -31 -150c-21 -46 -49 -86 -86 -121c-35 -33 -77 -60 -125 -79c-45 -19 -95 -28 -148 -28c-69 0 -133 16 -192 49s-107 78 -144 136zM1718 693c38 0 71 14 100 42c28 28 42 62 42 101c0 27 -6 50 -19 71c-14 23 -32 40 -53 52c-21 13 -44 19 -70 19
s-49 -6 -70 -19c-22 -13 -39 -30 -52 -52c-13 -23 -20 -47 -20 -71c0 -39 14 -73 43 -101c28 -28 61 -42 99 -42zM1376 420h692v-250h-692v250z" />
    <glyph glyph-name="trademark" unicode="&#x2122;" horiz-adv-x="1030" 
d="M123 903v438h-123l3 130h391v-130h-114v-438h-157zM980 1471l-279 -222l-268 222l-1 -566l154 -1l1 252l114 -106l123 110v-255l155 -1z" />
    <glyph glyph-name="partialdiff" unicode="&#x2202;" horiz-adv-x="1109" 
d="M343 1425l8 -129c220 -12 345 -141 374 -386h-11c-35 48 -104 72 -208 72c-143 0 -260 -50 -351 -149c-91 -100 -142 -217 -153 -350c-11 -131 23 -245 100 -341c77 -95 194 -142 353 -142c157 0 284 58 381 175s153 261 167 430c28 338 -42 571 -211 700
c-105 80 -254 120 -449 120zM354 269c-30 49 -42 110 -36 183c6 75 29 140 68 195c39 56 90 84 151 84c77 0 142 -19 193 -56c3 -40 2 -95 -4 -164c-7 -84 -30 -158 -69 -222s-93 -96 -164 -96c-63 0 -109 25 -139 76z" />
    <glyph glyph-name="Delta" unicode="&#x2206;" horiz-adv-x="883" 
d="M437 210l103 -203c-95 -102 -154 -171 -175 -207c-19 -32 -31 -70 -38 -114c-5 -28 4 -52 25 -71c27 -22 64 -31 110 -26c57 5 129 46 216 123l131 -262c-127 -86 -248 -134 -361 -143c-135 -12 -247 18 -334 89c-93 77 -129 175 -110 293c13 73 47 143 102 209
c43 54 154 158 331 312z" />
    <glyph glyph-name="product" unicode="&#x220f;" horiz-adv-x="1218" 
d="M794 1108h-420v-1520h-374v1836h1168v-1836h-374v1520z" />
    <glyph glyph-name="summation" unicode="&#x2211;" horiz-adv-x="1434" 
d="M600 527l-600 889l1384 4v-312h-758l357 -582l-340 -618h741v-312l-1370 3z" />
    <glyph glyph-name="minus" unicode="&#x2212;" horiz-adv-x="888" 
d="M838 563h-838l2 251h835z" />
    <glyph glyph-name="radical" unicode="&#x221a;" horiz-adv-x="1174" 
d="M166 777v-3h17l209 -418l565 1181h167l-722 -1537l-319 645h-83v132h166z" />
    <glyph glyph-name="infinity" unicode="&#x221e;" horiz-adv-x="1455" 
d="M740 757h-20c-66 123 -180 185 -342 185c-117 0 -210 -36 -277 -108c-67 -73 -101 -159 -101 -256c0 -96 33 -180 98 -251s154 -106 269 -106c117 0 221 66 311 199h21c69 -133 178 -199 328 -199c118 0 210 36 277 109s101 159 101 256c0 95 -33 179 -98 250
s-155 106 -270 106c-111 0 -210 -62 -297 -185zM212 578c0 54 17 103 50 146c33 41 78 62 135 62c97 0 170 -79 221 -238c-53 -114 -126 -171 -221 -171c-57 0 -102 20 -135 60c-33 39 -50 86 -50 141zM787 620c56 111 129 166 218 166c57 0 102 -21 137 -64
c34 -42 51 -91 51 -147c0 -54 -17 -101 -50 -140s-79 -58 -138 -58c-80 0 -153 81 -218 243z" />
    <glyph glyph-name="integral" unicode="&#x222b;" horiz-adv-x="430" 
d="M107 100l-1 1176c-3 68 8 121 31 159c23 35 55 61 96 78c41 16 90 24 147 24l-1 -154c-43 -2 -71 -9 -84 -22c-15 -13 -21 -43 -19 -91l2 -1170c0 -67 -11 -117 -34 -152s-56 -61 -97 -78c-39 -17 -88 -25 -147 -25l1 154c41 2 70 10 85 23c14 13 21 39 21 78z" />
    <glyph glyph-name="approxequal" unicode="&#x2248;" horiz-adv-x="928" 
d="M713 1082h165c-15 -101 -45 -178 -89 -232c-44 -55 -112 -82 -203 -82c-35 0 -91 15 -169 44c-70 30 -121 45 -152 45c-25 0 -46 -10 -65 -31c-20 -21 -32 -45 -36 -74h-164c7 84 37 156 88 215s114 88 191 88c43 0 105 -8 186 -23c82 -32 134 -48 156 -48
c45 0 76 33 92 98zM713 732h165c-15 -101 -45 -178 -89 -232c-44 -55 -112 -82 -203 -82c-35 0 -91 15 -169 44c-70 30 -121 45 -152 45c-25 0 -46 -10 -65 -31c-20 -21 -32 -45 -36 -74h-164c7 84 37 156 88 215s114 88 191 88c43 0 105 -8 186 -23c82 -32 134 -48 156 -48
c45 0 76 33 92 98z" />
    <glyph glyph-name="lessequal" unicode="&#x2264;" horiz-adv-x="1182" 
d="M454 918l677 -304v-237l-1131 547l1131 532v-237zM1132 113h-1120l3 187h1115z" />
    <glyph glyph-name="greaterequal" unicode="&#x2265;" horiz-adv-x="1185" 
d="M4 614l677 304l-677 301v237l1131 -532l-1131 -547v237zM1123 113h-1120l-3 187h1120z" />
    <glyph glyph-name="_237" horiz-adv-x="2054" 
d="M366 675h392c-23 27 -47 48 -70 63c-39 23 -81 35 -126 35s-87 -12 -126 -35c-23 -15 -47 -36 -70 -63zM1246 675h392c-23 27 -47 48 -70 63c-39 23 -81 35 -126 35s-87 -12 -126 -35c-23 -15 -47 -36 -70 -63zM881 473h-572c8 -58 32 -107 73 -148
c51 -51 111 -77 180 -77s129 26 180 77l2 3l3 3l3 4l2 2l172 -249c-51 -42 -101 -73 -150 -93c-69 -27 -139 -41 -212 -41c-97 0 -190 24 -277 72c-87 49 -156 116 -207 200c-52 85 -78 181 -78 286c0 81 15 154 45 220c32 71 73 130 124 178c53 51 113 90 180 116
c71 27 142 41 213 41s142 -14 212 -41c69 -27 129 -65 181 -115c15 -15 30 -32 47 -52c17 21 33 38 47 51c53 51 113 90 180 116c71 27 142 41 213 41s142 -14 212 -41c69 -27 129 -65 181 -115c53 -51 94 -110 124 -179c30 -68 45 -141 45 -220v-8c0 -5 0 -9 -1 -11l-1 -7
v-5l-1 -4v-2h-124v-2h-688c8 -58 32 -107 73 -148c51 -51 111 -77 180 -77s129 26 180 77l2 3l3 3l3 4l2 2l172 -249c-51 -42 -101 -73 -150 -93c-69 -27 -139 -41 -212 -41c-97 0 -190 24 -277 72c-87 49 -156 116 -207 200c-45 76 -71 158 -77 247z" />
    <glyph glyph-name="Amacron" unicode="&#x100;" horiz-adv-x="1613" 
d="M921 514h-279l140 252zM1065 252l139 -252h359l-602 1093l-179 326l-180 -326l-602 -1093h359l139 252h567zM353 1791h858v-252h-858v252z" />
    <glyph glyph-name="Amacron" unicode="&#x101;" 
d="M183 1407h858v-252h-858v252zM586 775c47 0 91 -11 132 -34c40 -23 73 -54 99 -94c25 -39 37 -82 37 -129c0 -71 -27 -132 -80 -183s-115 -76 -188 -76c-72 0 -134 25 -187 76s-80 112 -80 183c0 47 12 90 37 129c26 40 59 71 99 94c41 23 84 34 131 34zM855 30v-30
l317 -3l1 521c0 77 -16 150 -47 218c-31 65 -75 123 -130 174c-53 49 -115 87 -188 114c-71 27 -145 40 -222 40c-76 0 -150 -14 -222 -41c-71 -26 -133 -64 -188 -113s-98 -107 -129 -174c-31 -68 -47 -141 -47 -218c0 -103 27 -197 81 -281c53 -83 125 -148 216 -196
c91 -47 188 -71 289 -71c76 0 150 14 222 41c6 2 22 8 47 19z" />
    <glyph glyph-name="Abreve" unicode="&#x102;" horiz-adv-x="1613" 
d="M921 514h-279l140 252zM1065 252l139 -252h359l-602 1093l-179 326l-180 -326l-602 -1093h359l139 252h567zM1170 1881h-238c-7 -37 -23 -66 -48 -87c-27 -21 -61 -32 -100 -32c-41 0 -75 11 -102 32c-26 21 -42 50 -49 87h-240c1 -66 17 -125 50 -178
c34 -54 79 -95 136 -124c60 -29 126 -44 198 -44c118 0 210 30 277 90c67 59 106 145 116 256z" />
    <glyph glyph-name="Abreve" unicode="&#x103;" 
d="M1020 1502h-238c-7 -37 -23 -66 -48 -87c-27 -21 -61 -32 -100 -32c-41 0 -75 11 -102 32c-26 21 -42 50 -49 87h-240c1 -66 17 -125 50 -178c34 -54 79 -95 136 -124c60 -29 126 -44 198 -44c118 0 210 30 277 90c67 59 106 145 116 256zM586 775c47 0 91 -11 132 -34
c40 -23 73 -54 99 -94c25 -39 37 -82 37 -129c0 -71 -27 -132 -80 -183s-115 -76 -188 -76c-72 0 -134 25 -187 76s-80 112 -80 183c0 47 12 90 37 129c26 40 59 71 99 94c41 23 84 34 131 34zM855 30v-30l317 -3l1 521c0 77 -16 150 -47 218c-31 65 -75 123 -130 174
c-53 49 -115 87 -188 114c-71 27 -145 40 -222 40c-76 0 -150 -14 -222 -41c-71 -26 -133 -64 -188 -113s-98 -107 -129 -174c-31 -68 -47 -141 -47 -218c0 -103 27 -197 81 -281c53 -83 125 -148 216 -196c91 -47 188 -71 289 -71c76 0 150 14 222 41c6 2 22 8 47 19z" />
    <glyph glyph-name="Aogonek" unicode="&#x104;" horiz-adv-x="1613" 
d="M921 514h-279l140 252zM860 -558c79 -79 187 -118 325 -118c114 -1 228 26 343 81l-147 258c-47 -41 -100 -60 -157 -59c-47 -1 -83 11 -107 36c-20 19 -26 43 -19 72c10 43 26 79 48 110c80 119 219 178 417 178l-602 1093l-179 326l-180 -326l-602 -1093h359l139 252
h567l65 -118c-119 -89 -197 -153 -233 -191c-61 -61 -101 -128 -120 -199c-29 -116 -1 -217 83 -302z" />
    <glyph glyph-name="Aogonek" unicode="&#x105;" horiz-adv-x="1193" 
d="M356 642c-25 -39 -37 -83 -37 -130c0 -71 27 -134 80 -187c53 -51 116 -77 188 -77c71 0 134 26 187 77c53 53 80 116 80 187c0 47 -12 91 -37 130s-58 71 -99 95c-41 23 -85 35 -131 35c-47 0 -91 -12 -132 -35c-41 -24 -74 -56 -99 -95zM177 113
c-57 51 -100 111 -130 178c-31 70 -47 144 -47 221c0 78 16 151 47 220c30 67 73 126 130 177c58 52 121 91 188 116c71 27 145 40 222 40s151 -13 222 -40c19 -8 37 -20 56 -35l278 -1v-1001c-237 -25 -388 -73 -454 -144c-23 -25 -42 -56 -56 -93c-10 -25 -6 -47 11 -66
c19 -24 52 -39 98 -44c54 -7 129 15 224 66l74 -252c-135 -52 -257 -72 -364 -59c-129 15 -227 62 -294 141c-72 83 -88 176 -49 277c23 57 63 108 122 155c-33 7 -63 16 -90 27c-71 27 -133 66 -188 117z" />
    <glyph glyph-name="Cacute" unicode="&#x106;" horiz-adv-x="1252" 
d="M1202 194l-229 237c-28 -34 -57 -61 -86 -81c-57 -39 -120 -59 -187 -59s-130 20 -187 59s-103 91 -137 156s-51 133 -51 204s17 139 50 204c34 65 80 117 137 156c59 39 122 59 188 59s129 -20 188 -59c25 -16 52 -42 83 -77l229 237c-43 47 -93 89 -150 124
c-107 66 -223 99 -350 99c-126 0 -243 -33 -350 -99c-107 -67 -193 -157 -256 -270s-94 -237 -94 -374c0 -136 31 -260 94 -373c63 -112 148 -202 256 -269c107 -66 224 -99 350 -99c127 0 243 33 350 99c57 35 107 77 152 126zM774 1557l218 403h-295l-144 -403h221z" />
    <glyph glyph-name="Cacute" unicode="&#x107;" horiz-adv-x="1015" 
d="M954 940l-166 -227c-29 24 -61 42 -94 54c-35 12 -72 18 -112 18c-73 0 -135 -24 -186 -71c-51 -48 -77 -107 -77 -177c0 -55 11 -104 33 -147c21 -44 53 -79 95 -104c41 -26 88 -39 141 -39c79 0 147 25 202 76l175 -223c-25 -27 -60 -51 -106 -72s-93 -36 -142 -45
c-47 -11 -92 -16 -135 -16c-115 0 -218 25 -307 74s-157 113 -204 194s-71 169 -71 262c0 86 14 163 43 231c29 69 69 129 121 180c52 50 114 89 185 116c73 27 150 41 233 41c67 0 133 -11 199 -32c65 -23 123 -54 173 -93zM640 1157l218 403h-295l-144 -403h221z" />
    <glyph glyph-name="Ccircumflex" unicode="&#x108;" horiz-adv-x="1252" 
d="M1202 194l-229 237c-28 -34 -57 -61 -86 -81c-57 -39 -120 -59 -187 -59s-130 20 -187 59s-103 91 -137 156s-51 133 -51 204s17 139 50 204c34 65 80 117 137 156c59 39 122 59 188 59s129 -20 188 -59c25 -16 52 -42 83 -77l229 237c-43 47 -93 89 -150 124
c-107 66 -223 99 -350 99c-126 0 -243 -33 -350 -99c-107 -67 -193 -157 -256 -270s-94 -237 -94 -374c0 -136 31 -260 94 -373c63 -112 148 -202 256 -269c107 -66 224 -99 350 -99c127 0 243 33 350 99c57 35 107 77 152 126zM821 1567h252l-375 467l-391 -467h242
l136 153z" />
    <glyph glyph-name="Ccircumflex" unicode="&#x109;" horiz-adv-x="1015" 
d="M954 940l-166 -227c-29 24 -61 42 -94 54c-35 12 -72 18 -112 18c-73 0 -135 -24 -186 -71c-51 -48 -77 -107 -77 -177c0 -55 11 -104 33 -147c21 -44 53 -79 95 -104c41 -26 88 -39 141 -39c79 0 147 25 202 76l175 -223c-25 -27 -60 -51 -106 -72s-93 -36 -142 -45
c-47 -11 -92 -16 -135 -16c-115 0 -218 25 -307 74s-157 113 -204 194s-71 169 -71 262c0 86 14 163 43 231c29 69 69 129 121 180c52 50 114 89 185 116c73 27 150 41 233 41c67 0 133 -11 199 -32c65 -23 123 -54 173 -93zM698 1158h251l-374 467l-391 -467h241l136 153z
" />
    <glyph glyph-name="Cdotaccent" unicode="&#x10a;" horiz-adv-x="1252" 
d="M1202 194l-229 237c-28 -34 -57 -61 -86 -81c-57 -39 -120 -59 -187 -59s-130 20 -187 59s-103 91 -137 156s-51 133 -51 204s17 139 50 204c34 65 80 117 137 156c59 39 122 59 188 59s129 -20 188 -59c25 -16 52 -42 83 -77l229 237c-43 47 -93 89 -150 124
c-107 66 -223 99 -350 99c-126 0 -243 -33 -350 -99c-107 -67 -193 -157 -256 -270s-94 -237 -94 -374c0 -136 31 -260 94 -373c63 -112 148 -202 256 -269c107 -66 224 -99 350 -99c127 0 243 33 350 99c57 35 107 77 152 126zM602 1906c28 16 58 24 89 24s61 -8 89 -24
c27 -17 49 -39 66 -66s25 -56 25 -88c0 -53 -17 -97 -52 -132s-78 -53 -128 -53c-33 0 -64 8 -91 24c-28 16 -50 38 -66 67s-24 61 -24 94s8 62 25 89c17 28 39 50 67 65z" />
    <glyph glyph-name="Cdotaccent" unicode="&#x10b;" horiz-adv-x="1015" 
d="M954 940l-166 -227c-29 24 -61 42 -94 54c-35 12 -72 18 -112 18c-73 0 -135 -24 -186 -71c-51 -48 -77 -107 -77 -177c0 -55 11 -104 33 -147c21 -44 53 -79 95 -104c41 -26 88 -39 141 -39c79 0 147 25 202 76l175 -223c-25 -27 -60 -51 -106 -72s-93 -36 -142 -45
c-47 -11 -92 -16 -135 -16c-115 0 -218 25 -307 74s-157 113 -204 194s-71 169 -71 262c0 86 14 163 43 231c29 69 69 129 121 180c52 50 114 89 185 116c73 27 150 41 233 41c67 0 133 -11 199 -32c65 -23 123 -54 173 -93zM474 1497c28 16 58 24 89 24s61 -8 89 -24
c27 -17 49 -39 66 -66s25 -56 25 -88c0 -53 -17 -97 -52 -132s-78 -53 -128 -53c-33 0 -64 8 -91 24c-28 16 -50 38 -66 67s-24 61 -24 94s8 62 25 89c17 28 39 50 67 65z" />
    <glyph glyph-name="Ccaron" unicode="&#x10c;" horiz-adv-x="1252" 
d="M1202 194l-229 237c-28 -34 -57 -61 -86 -81c-57 -39 -120 -59 -187 -59s-130 20 -187 59s-103 91 -137 156s-51 133 -51 204s17 139 50 204c34 65 80 117 137 156c59 39 122 59 188 59s129 -20 188 -59c25 -16 52 -42 83 -77l229 237c-43 47 -93 89 -150 124
c-107 66 -223 99 -350 99c-126 0 -243 -33 -350 -99c-107 -67 -193 -157 -256 -270s-94 -237 -94 -374c0 -136 31 -260 94 -373c63 -112 148 -202 256 -269c107 -66 224 -99 350 -99c127 0 243 33 350 99c57 35 107 77 152 126zM564 2034h-252l375 -467l391 467h-242
l-136 -153z" />
    <glyph glyph-name="Ccaron" unicode="&#x10d;" horiz-adv-x="1015" 
d="M954 940l-166 -227c-29 24 -61 42 -94 54c-35 12 -72 18 -112 18c-73 0 -135 -24 -186 -71c-51 -48 -77 -107 -77 -177c0 -55 11 -104 33 -147c21 -44 53 -79 95 -104c41 -26 88 -39 141 -39c79 0 147 25 202 76l175 -223c-25 -27 -60 -51 -106 -72s-93 -36 -142 -45
c-47 -11 -92 -16 -135 -16c-115 0 -218 25 -307 74s-157 113 -204 194s-71 169 -71 262c0 86 14 163 43 231c29 69 69 129 121 180c52 50 114 89 185 116c73 27 150 41 233 41c67 0 133 -11 199 -32c65 -23 123 -54 173 -93zM450 1625h-251l374 -467l391 467h-241l-136 -153
z" />
    <glyph glyph-name="Dcaron" unicode="&#x10e;" horiz-adv-x="1307" 
d="M507 1h-507v1419h507c104 0 201 -18 292 -54c89 -35 168 -84 239 -149c68 -64 122 -140 161 -227c39 -86 58 -179 58 -280c0 -100 -19 -193 -58 -278c-39 -87 -93 -163 -161 -227c-69 -64 -149 -114 -240 -150s-188 -54 -291 -54zM475 1118h-113v-818h113
c57 0 112 11 164 33c51 22 96 52 135 91s69 83 90 132c21 47 31 99 31 154c0 51 -11 103 -32 156c-22 50 -51 93 -88 130s-82 66 -135 89c-53 22 -108 33 -165 33zM433 2004h-251l374 -467l391 467h-241l-136 -153z" />
    <glyph glyph-name="Dcaron" unicode="&#x10f;" horiz-adv-x="1667" 
d="M455 747c-41 -23 -74 -54 -99 -95c-25 -39 -37 -83 -37 -131c0 -72 27 -134 80 -186s116 -78 188 -78s134 26 187 78s80 114 80 186c0 48 -12 92 -37 131c-25 41 -58 72 -99 95c-41 24 -84 36 -131 36s-91 -12 -132 -36zM1173 1430v-915c-1 -103 -28 -196 -81 -279
c-53 -85 -125 -151 -216 -199c-91 -49 -187 -73 -289 -73c-77 0 -151 14 -222 41s-133 66 -188 117c-56 51 -99 110 -130 179s-47 142 -47 220c0 79 16 152 47 221c30 66 73 125 130 178c58 52 121 91 188 116c71 27 145 40 222 40s151 -13 222 -40l23 -10l22 -10v415z
M1603 1424v-114c9 -168 -84 -267 -281 -297l-1 99c31 8 56 17 77 28c-37 5 -69 21 -97 48c-31 31 -48 68 -51 111v125h353z" />
    <glyph glyph-name="Dcroat" unicode="&#x110;" horiz-adv-x="1460" 
d="M663 570h-148v-270h113c57 0 112 11 164 33c51 22 96 52 135 91s69 83 90 132c21 47 31 99 31 154c0 51 -11 103 -32 156c-22 50 -51 93 -88 130s-82 66 -135 89c-53 22 -108 33 -165 33h-113v-267h148v-281zM0 851h153v569h507c104 0 201 -18 292 -54
c89 -35 168 -84 239 -149c68 -64 122 -140 161 -227c39 -86 58 -179 58 -280c0 -100 -19 -193 -58 -278c-39 -87 -93 -163 -161 -227c-69 -64 -149 -114 -240 -150s-188 -54 -291 -54h-507v569h-153v281z" />
    <glyph glyph-name="Dcroat" unicode="&#x111;" horiz-adv-x="1398" 
d="M356 641c-25 -39 -37 -83 -37 -132c0 -73 27 -136 80 -189s115 -79 188 -79c72 0 134 26 187 79s80 116 80 189c0 49 -12 93 -37 132c-25 41 -58 73 -99 97s-84 36 -131 36s-91 -12 -132 -36s-74 -56 -99 -97zM1348 1240h-177l2 -738c-1 -103 -28 -198 -81 -283
s-125 -153 -216 -202s-188 -74 -289 -74c-78 0 -152 14 -222 42c-71 27 -134 67 -188 118c-56 52 -99 113 -130 182c-31 70 -47 145 -47 224s16 154 47 224c30 67 73 127 130 180s119 92 188 118c73 27 147 41 222 41s149 -14 222 -41l23 -10l22 -10l2 229h-178v180h179
l1 118l319 -1v-117h171v-180z" />
    <glyph glyph-name="Emacron" unicode="&#x112;" horiz-adv-x="951" 
d="M899 299l2 -299h-901v1419h859v-300l-511 -1v-246h281l81 -299h-362v-274h551zM2 1787h858v-252h-858v252z" />
    <glyph glyph-name="Emacron" unicode="&#x113;" horiz-adv-x="1174" 
d="M143 1410h858v-252h-858v252zM758 679h-392c22 26 45 47 70 62c39 23 81 34 126 34s87 -11 126 -34c25 -15 48 -36 70 -62zM774 1024c-67 27 -138 40 -212 40s-145 -13 -213 -40c-67 -26 -127 -64 -180 -115c-53 -49 -94 -107 -124 -174c-30 -66 -45 -138 -45 -216
c0 -104 26 -198 78 -281c51 -83 120 -149 207 -197c85 -47 178 -71 277 -71c74 0 145 13 212 40c52 21 102 52 150 91l-172 246l-2 -3l-3 -3l-3 -4l-2 -2c-51 -51 -111 -76 -180 -76s-129 25 -180 76c-41 41 -65 89 -73 145h688v2h124l2 17l1 6v14c0 77 -15 149 -45 216
c-30 68 -71 126 -124 175s-113 87 -181 114z" />
    <glyph glyph-name="Ebreve" unicode="&#x114;" horiz-adv-x="951" 
d="M899 299l2 -299h-901v1419h859l-3 -301h-508v-246h281l81 -299h-362v-274h551zM839 1886h-238c-7 -37 -23 -66 -48 -87c-27 -21 -61 -32 -100 -32c-41 0 -75 11 -102 32c-26 21 -42 50 -49 87h-240c1 -66 17 -125 50 -178c34 -54 79 -95 136 -124c60 -29 126 -44 198 -44
c118 0 210 30 277 90c67 59 106 145 116 256z" />
    <glyph glyph-name="Ebreve" unicode="&#x115;" horiz-adv-x="1174" 
d="M951 1506h-239c-7 -37 -23 -66 -48 -87s-59 -32 -100 -32s-75 11 -102 32c-26 21 -42 50 -49 87h-240c1 -66 17 -125 50 -178c34 -54 79 -95 136 -124c60 -29 126 -44 199 -44c117 0 209 30 276 90c67 59 106 145 117 256zM758 679h-392c22 26 45 47 70 62
c39 23 81 34 126 34s87 -11 126 -34c25 -15 48 -36 70 -62zM774 1024c-67 27 -138 40 -212 40s-145 -13 -213 -40c-67 -26 -127 -64 -180 -115c-53 -49 -94 -107 -124 -174c-30 -66 -45 -138 -45 -216c0 -104 26 -198 78 -281c51 -83 120 -149 207 -197
c85 -47 178 -71 277 -71c74 0 145 13 212 40c52 21 102 52 150 91l-172 246l-2 -3l-3 -3l-3 -4l-2 -2c-51 -51 -111 -76 -180 -76s-129 25 -180 76c-41 41 -65 89 -73 145h688v2h124l2 17l1 6v14c0 77 -15 149 -45 216c-30 68 -71 126 -124 175s-113 87 -181 114z" />
    <glyph glyph-name="Edotaccent" unicode="&#x116;" horiz-adv-x="951" 
d="M899 299l2 -299h-901v1419h859l-3 -301h-508v-246h281l81 -299h-362v-274h551zM362 1876c28 16 58 24 89 24s61 -8 89 -24c27 -17 49 -39 66 -66s25 -56 25 -88c0 -53 -17 -97 -52 -132s-78 -53 -128 -53c-33 0 -64 8 -91 24c-28 16 -50 38 -66 67s-24 61 -24 94
s8 62 25 89c17 28 39 50 67 65z" />
    <glyph glyph-name="Edotaccent" unicode="&#x117;" horiz-adv-x="1174" 
d="M474 1496c28 16 58 24 89 24s61 -8 89 -24c27 -17 49 -39 66 -66s25 -56 25 -88c0 -53 -17 -97 -52 -132s-78 -53 -128 -53c-33 0 -64 8 -91 24c-28 16 -50 38 -66 67s-24 61 -24 94s8 62 25 89c17 28 39 50 67 65zM758 679h-392c22 26 45 47 70 62c39 23 81 34 126 34
s87 -11 126 -34c25 -15 48 -36 70 -62zM774 1024c-67 27 -138 40 -212 40s-145 -13 -213 -40c-67 -26 -127 -64 -180 -115c-53 -49 -94 -107 -124 -174c-30 -66 -45 -138 -45 -216c0 -104 26 -198 78 -281c51 -83 120 -149 207 -197c85 -47 178 -71 277 -71
c74 0 145 13 212 40c52 21 102 52 150 91l-172 246l-2 -3l-3 -3l-3 -4l-2 -2c-51 -51 -111 -76 -180 -76s-129 25 -180 76c-41 41 -65 89 -73 145h688v2h124l2 17l1 6v14c0 77 -15 149 -45 216c-30 68 -71 126 -124 175s-113 87 -181 114z" />
    <glyph glyph-name="Eogonek" unicode="&#x118;" horiz-adv-x="946" 
d="M299 0h-299v1419h859l-3 -301h-508v-246h281l81 -299h-362v-274h548v-299c-187 -31 -299 -76 -335 -135c-36 -60 -44 -104 -23 -133c15 -31 47 -55 97 -72c51 -17 121 -9 210 26l12 -292c-130 -27 -250 -21 -359 17c-129 45 -218 118 -267 219c-52 107 -45 211 20 312
c13 19 29 39 48 58z" />
    <glyph glyph-name="Eogonek" unicode="&#x119;" horiz-adv-x="1174" 
d="M758 674h-392c23 27 47 48 70 63c39 23 81 34 126 34s87 -11 126 -34c23 -15 47 -36 70 -63zM452 -563c101 -24 220 -14 355 29l-138 246c-34 -25 -77 -31 -128 -19c-43 9 -72 28 -89 55c-23 37 -24 78 -5 123c19 41 78 75 177 100c97 23 197 63 300 121l-172 247l-2 -2
l-3 -4l-3 -3l-2 -3c-51 -51 -111 -76 -180 -76s-129 25 -180 76c-41 41 -65 90 -73 147h688v2h124l2 17l1 6v14c0 77 -15 150 -45 218c-30 69 -71 128 -124 177c-52 49 -112 87 -181 115c-67 27 -138 40 -212 40s-145 -13 -213 -40c-67 -26 -127 -65 -180 -116
c-52 -49 -93 -108 -124 -176c-30 -67 -45 -139 -45 -218c0 -104 26 -199 78 -284c47 -78 110 -140 188 -187c-43 -38 -75 -80 -98 -127c-49 -103 -43 -203 16 -300c57 -92 147 -151 268 -178z" />
    <glyph glyph-name="Ecaron" unicode="&#x11a;" horiz-adv-x="951" 
d="M899 299l2 -299h-901v1419h859l-3 -301h-508v-246h281l81 -299h-362v-274h551zM329 2004h-251l374 -467l391 467h-241l-136 -153z" />
    <glyph glyph-name="Ecaron" unicode="&#x11b;" horiz-adv-x="1174" 
d="M451 1625h-252l375 -467l391 467h-242l-136 -153zM758 679h-392c22 26 45 47 70 62c39 23 81 34 126 34s87 -11 126 -34c25 -15 48 -36 70 -62zM774 1024c-67 27 -138 40 -212 40s-145 -13 -213 -40c-67 -26 -127 -64 -180 -115c-53 -49 -94 -107 -124 -174
c-30 -66 -45 -138 -45 -216c0 -104 26 -198 78 -281c51 -83 120 -149 207 -197c85 -47 178 -71 277 -71c74 0 145 13 212 40c52 21 102 52 150 91l-172 246l-2 -3l-3 -3l-3 -4l-2 -2c-51 -51 -111 -76 -180 -76s-129 25 -180 76c-41 41 -65 89 -73 145h688v2h124l2 17l1 6
v14c0 77 -15 149 -45 216c-30 68 -71 126 -124 175s-113 87 -181 114z" />
    <glyph glyph-name="Gcircumflex" unicode="&#x11c;" horiz-adv-x="1394" 
d="M1303 1246l-205 -254c-45 41 -96 72 -153 95c-56 23 -115 34 -177 34s-118 -10 -168 -31c-52 -21 -97 -50 -134 -87c-37 -38 -66 -83 -87 -134c-21 -49 -31 -105 -31 -167c0 -86 20 -161 60 -224c39 -63 92 -112 161 -145c68 -34 143 -51 226 -51c33 0 70 4 111 12
c40 8 70 22 89 41v205h-139l-125 299h613v-733c-25 -15 -65 -34 -121 -56c-53 -20 -103 -36 -148 -47c-41 -11 -95 -22 -160 -31c-58 -8 -113 -12 -165 -12c-135 0 -260 33 -375 99c-115 67 -207 157 -274 270s-101 238 -101 373c0 134 34 259 101 374
c67 113 159 203 274 270c115 66 240 99 375 99c64 0 131 -8 202 -23c67 -15 131 -38 191 -69c62 -31 115 -67 160 -107zM887 1567h252l-375 467l-391 -467h242l136 153z" />
    <glyph glyph-name="Gcircumflex" unicode="&#x11d;" horiz-adv-x="1167" 
d="M574 258c69 0 130 26 183 77c52 51 78 113 78 184c0 45 -12 88 -36 128c-23 40 -55 72 -96 95s-84 34 -129 34c-46 0 -88 -11 -127 -34c-40 -23 -72 -55 -97 -95c-24 -40 -36 -83 -36 -128c0 -71 26 -133 78 -184c53 -51 114 -77 182 -77zM1117 513l-1 -544v-74
c0 -132 -47 -245 -140 -338c-43 -43 -101 -78 -174 -104c-68 -24 -135 -36 -202 -36h-56c-151 3 -272 49 -363 140c-60 60 -97 114 -110 163l305 178c3 -53 24 -98 63 -135s85 -55 138 -55c42 0 80 12 115 36c34 24 58 54 73 91l1 3l2 5l2 8l2 7c2 5 4 13 5 24v2l1 4l1 4v6
h1v105l-8 -4l-8 -3c-68 -27 -138 -41 -210 -41c-97 0 -188 24 -273 73c-85 48 -153 115 -204 200s-77 181 -77 286c0 79 15 153 45 221c29 67 70 127 122 178c51 50 111 89 178 116c69 27 138 41 209 41c124 0 216 -16 276 -48c191 -82 287 -252 287 -509zM710 1158h251
l-374 467l-391 -467h241l136 153z" />
    <glyph glyph-name="Gbreve" unicode="&#x11e;" horiz-adv-x="1394" 
d="M1303 1246l-205 -254c-45 41 -96 72 -153 95c-56 23 -115 34 -177 34s-118 -10 -168 -31c-52 -21 -97 -50 -134 -87c-37 -38 -66 -83 -87 -134c-21 -49 -31 -105 -31 -167c0 -86 20 -161 60 -224c39 -63 92 -112 161 -145c68 -34 143 -51 226 -51c33 0 70 4 111 12
c40 8 70 22 89 41v205h-139l-125 299h613v-733c-25 -15 -65 -34 -121 -56c-53 -20 -103 -36 -148 -47c-41 -11 -95 -22 -160 -31c-58 -8 -113 -12 -165 -12c-135 0 -260 33 -375 99c-115 67 -207 157 -274 270s-101 238 -101 373c0 134 34 259 101 374
c67 113 159 203 274 270c115 66 240 99 375 99c64 0 131 -8 202 -23c67 -15 131 -38 191 -69c62 -31 115 -67 160 -107zM1145 1913h-239c-7 -37 -23 -66 -48 -87s-59 -32 -100 -32s-75 11 -102 32c-26 21 -42 50 -49 87h-240c1 -66 17 -125 50 -178c34 -54 79 -95 136 -124
c60 -29 126 -44 199 -44c117 0 209 30 276 90c67 59 106 145 117 256z" />
    <glyph glyph-name="Gbreve" unicode="&#x11f;" horiz-adv-x="1167" 
d="M574 258c69 0 130 26 183 77c52 51 78 113 78 184c0 45 -12 88 -36 128c-23 40 -55 72 -96 95s-84 34 -129 34c-46 0 -88 -11 -127 -34c-40 -23 -72 -55 -97 -95c-24 -40 -36 -83 -36 -128c0 -71 26 -133 78 -184c53 -51 114 -77 182 -77zM1117 513l-1 -544v-74
c0 -132 -47 -245 -140 -338c-43 -43 -101 -78 -174 -104c-68 -24 -135 -36 -202 -36h-56c-151 3 -272 49 -363 140c-60 60 -97 114 -110 163l305 178c3 -53 24 -98 63 -135s85 -55 138 -55c42 0 80 12 115 36c34 24 58 54 73 91l1 3l2 5l2 8l2 7c2 5 4 13 5 24v2l1 4l1 4v6
h1v105l-8 -4l-8 -3c-68 -27 -138 -41 -210 -41c-97 0 -188 24 -273 73c-85 48 -153 115 -204 200s-77 181 -77 286c0 79 15 153 45 221c29 67 70 127 122 178c51 50 111 89 178 116c69 27 138 41 209 41c124 0 216 -16 276 -48c191 -82 287 -252 287 -509zM967 1506h-238
c-7 -37 -23 -66 -48 -87c-27 -21 -61 -32 -100 -32c-41 0 -75 11 -102 32c-26 21 -42 50 -49 87h-240c1 -66 17 -125 50 -178c34 -54 79 -95 136 -124c60 -29 126 -44 198 -44c118 0 210 30 277 90c67 59 106 145 116 256z" />
    <glyph glyph-name="Gdotaccent" unicode="&#x120;" horiz-adv-x="1394" 
d="M1303 1246l-205 -254c-45 41 -96 72 -153 95c-56 23 -115 34 -177 34s-118 -10 -168 -31c-52 -21 -97 -50 -134 -87c-37 -38 -66 -83 -87 -134c-21 -49 -31 -105 -31 -167c0 -86 20 -161 60 -224c39 -63 92 -112 161 -145c68 -34 143 -51 226 -51c33 0 70 4 111 12
c40 8 70 22 89 41v205h-139l-125 299h613v-733c-25 -15 -65 -34 -121 -56c-53 -20 -103 -36 -148 -47c-41 -11 -95 -22 -160 -31c-58 -8 -113 -12 -165 -12c-135 0 -260 33 -375 99c-115 67 -207 157 -274 270s-101 238 -101 373c0 134 34 259 101 374
c67 113 159 203 274 270c115 66 240 99 375 99c64 0 131 -8 202 -23c67 -15 131 -38 191 -69c62 -31 115 -67 160 -107zM648 1906c28 16 58 24 89 24s61 -8 89 -24c27 -17 49 -39 66 -66s25 -56 25 -88c0 -53 -17 -97 -52 -132s-78 -53 -128 -53c-33 0 -64 8 -91 24
c-28 16 -50 38 -66 67s-24 61 -24 94s8 62 25 89c17 28 39 50 67 65z" />
    <glyph glyph-name="Gdotaccent" unicode="&#x121;" horiz-adv-x="1167" 
d="M574 258c69 0 130 26 183 77c52 51 78 113 78 184c0 45 -12 88 -36 128c-23 40 -55 72 -96 95s-84 34 -129 34c-46 0 -88 -11 -127 -34c-40 -23 -72 -55 -97 -95c-24 -40 -36 -83 -36 -128c0 -71 26 -133 78 -184c53 -51 114 -77 182 -77zM1117 513l-1 -544v-74
c0 -132 -47 -245 -140 -338c-43 -43 -101 -78 -174 -104c-68 -24 -135 -36 -202 -36h-56c-151 3 -272 49 -363 140c-60 60 -97 114 -110 163l305 178c3 -53 24 -98 63 -135s85 -55 138 -55c42 0 80 12 115 36c34 24 58 54 73 91l1 3l2 5l2 8l2 7c2 5 4 13 5 24v2l1 4l1 4v6
h1v105l-8 -4l-8 -3c-68 -27 -138 -41 -210 -41c-97 0 -188 24 -273 73c-85 48 -153 115 -204 200s-77 181 -77 286c0 79 15 153 45 221c29 67 70 127 122 178c51 50 111 89 178 116c69 27 138 41 209 41c124 0 216 -16 276 -48c191 -82 287 -252 287 -509zM495 1497
c28 16 58 24 89 24s61 -8 89 -24c27 -17 49 -39 66 -66s25 -56 25 -88c0 -53 -17 -97 -52 -132s-78 -53 -128 -53c-33 0 -64 8 -91 24c-28 16 -50 38 -66 67s-24 61 -24 94s8 62 25 89c17 28 39 50 67 65z" />
    <glyph glyph-name="Gcommaaccent" unicode="&#x122;" horiz-adv-x="1394" 
d="M1303 1246l-205 -254c-45 41 -96 72 -153 95c-56 23 -115 34 -177 34s-118 -10 -168 -31c-52 -21 -97 -50 -134 -87c-37 -38 -66 -83 -87 -134c-21 -49 -31 -105 -31 -167c0 -86 20 -161 60 -224c39 -63 92 -112 161 -145c68 -34 143 -51 226 -51c33 0 70 4 111 12
c40 8 70 22 89 41v205h-139l-125 299h613v-733c-25 -15 -65 -34 -121 -56c-53 -20 -103 -36 -148 -47c-41 -11 -95 -22 -160 -31c-58 -8 -113 -12 -165 -12c-135 0 -260 33 -375 99c-115 67 -207 157 -274 270s-101 238 -101 373c0 134 34 259 101 374
c67 113 159 203 274 270c115 66 240 99 375 99c64 0 131 -8 202 -23c67 -15 131 -38 191 -69c62 -31 115 -67 160 -107zM919 -164v-114c9 -168 -84 -267 -281 -297l-1 99c31 8 56 17 77 28c-37 5 -69 21 -97 48c-31 31 -48 68 -51 111v125h353z" />
    <glyph glyph-name="Gcommaaccent" unicode="&#x123;" horiz-adv-x="1167" 
d="M574 258c69 0 130 26 183 77c52 51 78 113 78 184c0 45 -12 88 -36 128c-23 40 -55 72 -96 95s-84 34 -129 34c-46 0 -88 -11 -127 -34c-40 -23 -72 -55 -97 -95c-24 -40 -36 -83 -36 -128c0 -71 26 -133 78 -184c53 -51 114 -77 182 -77zM1117 513l-1 -544v-74
c0 -132 -47 -245 -140 -338c-43 -43 -101 -78 -174 -104c-68 -24 -135 -36 -202 -36h-56c-151 3 -272 49 -363 140c-60 60 -97 114 -110 163l305 178c3 -53 24 -98 63 -135s85 -55 138 -55c42 0 80 12 115 36c34 24 58 54 73 91l1 3l2 5l2 8l2 7c2 5 4 13 5 24v2l1 4l1 4v6
h1v105l-8 -4l-8 -3c-68 -27 -138 -41 -210 -41c-97 0 -188 24 -273 73c-85 48 -153 115 -204 200s-77 181 -77 286c0 79 15 153 45 221c29 67 70 127 122 178c51 50 111 89 178 116c69 27 138 41 209 41c124 0 216 -16 276 -48c191 -82 287 -252 287 -509zM443 1158v114
c-9 168 84 267 281 297l1 -99c-31 -8 -56 -17 -77 -28c37 -5 69 -21 97 -48c31 -31 48 -68 50 -111l1 -125h-353z" />
    <glyph glyph-name="Hcircumflex" unicode="&#x124;" horiz-adv-x="1196" 
d="M348 0v580h450v-580h348v1419h-348v-518h-450v518h-348v-1419h348zM729 1537h252l-375 467l-391 -467h242l136 153z" />
    <glyph glyph-name="Hcircumflex" unicode="&#x125;" horiz-adv-x="1009" 
d="M0 1419l320 1v-421c31 31 69 56 114 74c46 18 93 27 140 27c257 0 385 -150 385 -451v-649l-320 -1v628c0 61 -14 107 -42 138s-67 46 -118 46c-49 0 -88 -15 -116 -46c-29 -31 -43 -77 -43 -138v-627l-320 -2v1421zM641 1537h251l-374 467l-391 -467h241l136 153z" />
    <glyph glyph-name="Hbar" unicode="&#x126;" horiz-adv-x="1534" 
d="M1147 966h171v314h-171v139h-348v-139h-450v139h-348v-139h-167v-314h167v-966h348v520h450v-520h348v966zM349 966h450v-125h-450v125z" />
    <glyph glyph-name="Hbar" unicode="&#x127;" horiz-adv-x="1184" 
d="M-175 1419h175v118l320 1v-119h175v-281h-175v-139c31 31 69 56 114 74c46 18 93 27 140 27c257 0 385 -150 385 -451v-649l-320 -1v628c0 61 -14 107 -42 138s-67 46 -118 46c-49 0 -88 -15 -116 -46c-29 -31 -43 -77 -43 -138v-627l-320 -2v1140h-175v281z" />
    <glyph glyph-name="Itilde" unicode="&#x128;" horiz-adv-x="928" 
d="M-1 1v1417h348v-1418zM477 1867h165c-15 -101 -45 -178 -89 -232c-44 -55 -112 -82 -203 -82c-35 0 -91 15 -169 44c-70 30 -121 45 -152 45c-25 0 -46 -10 -65 -31c-20 -21 -32 -45 -36 -74h-164c7 84 37 156 88 215s114 88 191 88c43 0 105 -8 186 -23
c82 -32 134 -48 156 -48c45 0 76 33 92 98z" />
    <glyph glyph-name="Itilde" unicode="&#x129;" horiz-adv-x="928" 
d="M-1 1022l319 -3v-1020l-319 -1v1024zM462 1489h165c-15 -101 -45 -178 -89 -232c-45 -55 -113 -82 -204 -82c-35 0 -91 15 -169 44c-69 30 -119 45 -151 45c-25 0 -46 -10 -65 -31c-20 -21 -32 -45 -37 -74h-163c7 85 36 156 87 215s114 88 191 88c43 0 105 -8 187 -23
c82 -32 134 -48 155 -48c45 0 76 33 93 98z" />
    <glyph glyph-name="Imacron" unicode="&#x12a;" horiz-adv-x="908" 
d="M0 1v1417h348v-1418zM-255 1791h858v-252h-858v252z" />
    <glyph glyph-name="Imacron" unicode="&#x12b;" horiz-adv-x="908" 
d="M-1 1022l319 1v-1024l-319 -1v1024zM-270 1411h858v-252h-858v252z" />
    <glyph glyph-name="Ibreve" unicode="&#x12c;" horiz-adv-x="828" 
d="M2 1v1417h348v-1418zM565 1883h-239c-7 -37 -23 -66 -48 -87s-59 -32 -100 -32s-75 11 -102 32c-26 21 -42 50 -49 87h-240c1 -66 17 -125 50 -178c34 -54 79 -95 136 -124c60 -29 126 -44 199 -44c117 0 209 30 276 90c67 59 106 145 117 256z" />
    <glyph glyph-name="Ibreve" unicode="&#x12d;" horiz-adv-x="827" 
d="M1 1024l319 -3v-1020l-319 -1v1024zM560 1504h-238c-7 -37 -23 -66 -48 -87c-27 -21 -61 -32 -100 -32c-41 0 -75 11 -102 32c-26 21 -42 50 -49 87h-240c1 -66 17 -125 50 -178c34 -54 79 -95 136 -124c60 -29 126 -44 198 -44c118 0 210 30 277 90
c67 59 106 145 116 256z" />
    <glyph glyph-name="Iogonek" unicode="&#x12e;" horiz-adv-x="889" 
d="M-35 173v1245h348v-1418c-264 -69 -423 -166 -476 -290c-8 -27 -2 -51 17 -72c23 -26 57 -41 104 -44c57 -5 132 23 225 83l97 -274c-133 -63 -256 -89 -370 -80c-133 11 -238 58 -315 142c-81 89 -105 189 -72 301c21 69 62 130 124 185c49 44 155 118 318 222z" />
    <glyph glyph-name="Iogonek" unicode="&#x12f;" horiz-adv-x="851" 
d="M199 1168c-25 -15 -53 -23 -84 -23s-58 7 -83 22s-45 35 -60 61c-15 27 -23 56 -23 85c0 31 7 59 22 84c16 26 36 46 61 61s52 22 83 22s59 -7 84 -22s45 -36 60 -61s22 -53 22 -84c0 -32 -7 -60 -22 -85s-35 -45 -60 -60zM-39 159v863l319 -3v-1020
c-152 1 -280 -42 -384 -131c-23 -23 -42 -52 -56 -87c-9 -23 -5 -44 12 -63c20 -24 53 -39 98 -44c56 -7 131 12 224 59l77 -244c-136 -46 -258 -62 -365 -47c-129 17 -228 64 -297 141c-73 82 -90 170 -51 265c25 59 69 110 132 154c53 37 150 90 291 157z" />
    <glyph glyph-name="Idotaccent" unicode="&#x130;" horiz-adv-x="411" 
d="M6 1v1417h348v-1418zM92 1923c28 16 58 24 89 24s61 -8 89 -24c27 -17 49 -39 66 -66s25 -56 25 -88c0 -53 -17 -97 -52 -132s-78 -53 -128 -53c-33 0 -64 8 -91 24c-28 16 -50 38 -66 67s-24 61 -24 94s8 62 25 89c17 28 39 50 67 65z" />
    <glyph glyph-name="IJ" unicode="&#x132;" horiz-adv-x="849" 
d="M0 1v1417h348v-1418zM799 1421h-337v-1353h-1c-2 -16 -4 -30 -7 -43c-2 -10 -4 -18 -6 -25c-21 -63 -57 -118 -108 -163c-50 -45 -110 -77 -181 -96l-3 -1h-4l-7 -1l-6 -1c-9 -2 -24 -4 -44 -7v-304c54 3 104 10 149 21c127 31 238 89 334 175s161 186 196 299
c12 39 20 82 23 131h2v1368z" />
    <glyph glyph-name="IJ" unicode="&#x133;" horiz-adv-x="806" 
d="M12 1022l319 -3v-1020l-319 -1v1024zM250 1168c-25 -15 -53 -23 -84 -23s-58 7 -83 22s-45 35 -60 61c-15 27 -23 56 -23 85c0 31 7 59 22 84c16 26 36 46 61 61s52 22 83 22s59 -7 84 -22s45 -36 60 -61s22 -53 22 -84c0 -32 -7 -60 -22 -85s-35 -45 -60 -60zM307 -381
l-100 289c55 0 97 4 128 12c31 7 55 24 71 50c16 25 24 63 24 114v939h319v-970c0 -73 -7 -137 -20 -194c-15 -55 -39 -100 -70 -133c-32 -36 -77 -63 -135 -80c-57 -18 -129 -27 -217 -27zM674 1168c-25 -15 -53 -23 -84 -23s-58 7 -83 22s-45 35 -60 61
c-15 27 -23 56 -23 85c0 31 7 59 22 84c16 26 36 46 61 61s52 22 83 22s59 -7 84 -22s45 -36 60 -61s22 -53 22 -84c0 -32 -7 -60 -22 -85s-35 -45 -60 -60z" />
    <glyph glyph-name="Jcircumflex" unicode="&#x134;" horiz-adv-x="973" 
d="M335 1421h-337v-1353h-1c-2 -16 -4 -30 -7 -43c-2 -10 -4 -18 -6 -25c-21 -63 -57 -118 -108 -163c-50 -45 -110 -77 -181 -96l-3 -1h-4l-7 -1l-6 -1c-9 -2 -24 -4 -44 -7v-304c54 3 104 10 149 21c127 31 238 89 334 175s161 186 196 299c12 39 20 82 23 131h2v1368z
M302 1537h252l-375 467l-391 -467h242l136 153z" />
    <glyph glyph-name="Jcircumflex" unicode="&#x135;" horiz-adv-x="828" 
d="M100 -381l-100 289c55 0 97 4 128 12c31 7 55 24 71 50c16 25 24 63 24 114v939h319v-970c0 -73 -7 -137 -20 -194c-15 -55 -39 -100 -70 -133c-32 -36 -77 -63 -135 -80c-57 -18 -129 -27 -217 -27zM526 1158h252l-375 467l-391 -467h242l136 153z" />
    <glyph glyph-name="Kcommaaccent" unicode="&#x136;" horiz-adv-x="1175" 
d="M749 1l-416 636v-636h-333v1419h333v-677l414 677h375l-448 -732l451 -687h-376zM706 -144v-114c9 -168 -84 -267 -281 -297l-1 99c31 8 56 17 77 28c-37 5 -69 21 -97 48c-31 31 -48 68 -51 111v125h353z" />
    <glyph glyph-name="Kcommaaccent" unicode="&#x137;" horiz-adv-x="1145" 
d="M320 0h-320v1418l320 1v-784h4l331 388h375l-370 -439l435 -584h-399l-376 502v-502zM668 -144v-114c9 -168 -84 -267 -281 -297l-1 99c31 8 56 17 77 28c-37 5 -69 21 -97 48c-31 31 -48 68 -51 111v125h353z" />
    <glyph glyph-name="kgreenlandic" unicode="&#x138;" horiz-adv-x="1145" 
d="M320 0h-320v1020l320 1v-386h4l331 388h375l-370 -439l435 -584h-399l-376 502v-502z" />
    <glyph glyph-name="Lacute" unicode="&#x139;" horiz-adv-x="859" 
d="M809 324l-93 -324h-716v1418l348 1v-1095h461zM483 1537l218 403h-295l-144 -403h221z" />
    <glyph glyph-name="Lacute" unicode="&#x13a;" horiz-adv-x="532" 
d="M0 -2v1421l319 1v-1418zM264 1537l218 403h-295l-144 -403h221z" />
    <glyph glyph-name="Lcommaaccent" unicode="&#x13b;" horiz-adv-x="859" 
d="M809 324l-93 -324h-716v1418l348 1v-1095h461zM564 -144v-114c9 -168 -84 -267 -281 -297l-1 99c31 8 56 17 77 28c-37 5 -69 21 -97 48c-31 31 -48 68 -51 111v125h353z" />
    <glyph glyph-name="Lcommaaccent" unicode="&#x13c;" horiz-adv-x="389" 
d="M2 -2v1421l319 1v-1418zM326 -144v-114c9 -168 -78 -267 -259 -297l-1 99c32 9 56 19 71 28c-34 5 -64 21 -90 48c-29 31 -44 68 -47 111v125h326z" />
    <glyph glyph-name="Lcaron" unicode="&#x13d;" horiz-adv-x="893" 
d="M809 324l-93 -324h-716v1418l348 1v-1095h461zM829 1434v-114c9 -168 -84 -267 -281 -297l-1 99c31 8 56 17 77 28c-37 5 -69 21 -97 48c-31 31 -48 68 -51 111v125h353z" />
    <glyph glyph-name="Lcaron" unicode="&#x13e;" horiz-adv-x="829" 
d="M0 -2v1421l319 1v-1418zM765 1419v-114c9 -168 -84 -267 -281 -297l-1 99c31 8 56 17 77 28c-37 5 -69 21 -97 48c-31 31 -48 68 -51 111v125h353z" />
    <glyph glyph-name="Ldot" unicode="&#x13f;" horiz-adv-x="859" 
d="M809 324l-93 -324h-716v1418l348 1v-1095h461zM498 867c28 16 58 24 89 24s61 -8 89 -24c27 -17 49 -39 66 -66s25 -56 25 -88c0 -53 -17 -97 -52 -132s-78 -53 -128 -53c-33 0 -64 8 -91 24c-28 16 -50 38 -66 67s-24 61 -24 94s8 62 25 89c17 28 39 50 67 65z" />
    <glyph glyph-name="Ldot" unicode="&#x140;" horiz-adv-x="763" 
d="M0 -2v1421l319 1v-1418zM444 867c28 16 58 24 89 24s61 -8 89 -24c27 -17 49 -39 66 -66s25 -56 25 -88c0 -53 -17 -97 -52 -132s-78 -53 -128 -53c-33 0 -64 8 -91 24c-28 16 -50 38 -66 67s-24 61 -24 94s8 62 25 89c17 28 39 50 67 65z" />
    <glyph glyph-name="Lslash" unicode="&#x141;" horiz-adv-x="1053" 
d="M544 1014l-200 -186v-504h461l-93 -324h-716v506l-115 -107l-79 74l194 180v765l348 1v-444l122 113z" />
    <glyph glyph-name="Lslash" unicode="&#x142;" horiz-adv-x="655" 
d="M-138 607l137 106v706l319 1v-459l85 66l64 -82l-149 -116v-827l-319 -4v583l-73 -57z" />
    <glyph glyph-name="Nacute" unicode="&#x143;" horiz-adv-x="1302" 
d="M1252 1417l-4 -1418l-899 735l1 -731h-350l4 1416l900 -655v655zM678 1537l218 403h-295l-144 -403h221z" />
    <glyph glyph-name="Nacute" unicode="&#x144;" horiz-adv-x="952" 
d="M562 1157l218 403h-295l-144 -403h221zM442 775h18c81 -3 122 -60 122 -170v-605h320v605c0 291 -147 444 -442 459h-18c-295 -15 -442 -168 -442 -459v-605h320v605c0 110 41 167 122 170z" />
    <glyph glyph-name="Ncommaaccent" unicode="&#x145;" horiz-adv-x="1302" 
d="M1252 1417l-4 -1418l-899 735l1 -731h-350l4 1416l900 -655v655zM843 -144v-114c9 -168 -84 -267 -281 -297l-1 99c31 8 56 17 77 28c-37 5 -69 21 -97 48c-31 31 -48 68 -51 111v125h353z" />
    <glyph glyph-name="Ncommaaccent" unicode="&#x146;" horiz-adv-x="952" 
d="M636 -144v-114c9 -168 -84 -267 -281 -297l-1 99c31 8 56 17 77 28c-37 5 -69 21 -97 48c-31 31 -48 68 -51 111v125h353zM442 775h18c81 -3 122 -60 122 -170v-605h320v605c0 291 -147 444 -442 459h-18c-295 -15 -442 -168 -442 -459v-605h320v605
c0 110 41 167 122 170z" />
    <glyph glyph-name="Ncaron" unicode="&#x147;" horiz-adv-x="1302" 
d="M1252 1417l-4 -1418l-899 735l1 -731h-350l4 1416l900 -655v655zM491 1916h-252l375 -467l391 467h-242l-136 -153z" />
    <glyph glyph-name="Ncaron" unicode="&#x148;" horiz-adv-x="952" 
d="M333 1625h-251l374 -467l392 467h-242l-136 -153zM442 775h18c81 -3 122 -60 122 -170v-605h320v605c0 291 -147 444 -442 459h-18c-295 -15 -442 -168 -442 -459v-605h320v605c0 110 41 167 122 170z" />
    <glyph glyph-name="napostrophe" unicode="&#x149;" horiz-adv-x="1297" 
d="M188 1066v-114c9 -168 -84 -267 -281 -297l-1 99c31 8 56 17 77 28c-37 5 -69 21 -97 48c-31 31 -48 68 -51 111v125h353zM620 775h18c81 -3 122 -60 122 -170v-605h320v605c0 291 -147 444 -442 459h-18c-295 -15 -442 -168 -442 -459v-605h320v605
c0 110 41 167 122 170z" />
    <glyph glyph-name="Eng" unicode="&#x14a;" horiz-adv-x="1302" 
d="M921 -14v280l-572 468l1 -731h-350l4 1416l900 -655v655l348 -2l-1 -460v-1003c0 -79 -7 -146 -21 -201c-15 -54 -39 -100 -73 -138c-34 -37 -80 -64 -139 -82c-57 -19 -132 -28 -225 -28l-103 299c56 0 100 4 133 12c32 8 56 25 73 52c17 25 25 64 25 118z" />
    <glyph glyph-name="Eng" unicode="&#x14b;" horiz-adv-x="953" 
d="M302 -302h-2c-1 0 -3 0 -5 -1l-6 -1l-7 -2c-17 -3 -31 -5 -41 -6v-282c53 3 100 10 141 20c120 29 226 83 317 162s152 172 185 277c12 37 19 78 22 122h2v631c0 1 0 1 -1 1c-1 282 -148 431 -442 446h-18c-295 -15 -442 -165 -442 -450v-627h320v627
c0 100 35 155 104 165c11 1 17 2 18 2h18c81 -3 122 -59 122 -167v-620c-3 -21 -6 -40 -11 -57c-21 -59 -55 -109 -103 -151c-47 -43 -104 -72 -171 -89z" />
    <glyph glyph-name="Omacron" unicode="&#x14c;" horiz-adv-x="1549" 
d="M402 913c-36 -65 -54 -133 -54 -204s18 -139 55 -204c37 -66 86 -118 146 -157c61 -39 128 -59 201 -59c72 0 139 20 200 59s110 92 147 157c36 65 54 133 54 204s-18 139 -54 204s-85 117 -146 156c-63 39 -130 59 -201 59c-73 0 -140 -20 -201 -59
c-62 -39 -111 -91 -147 -156zM1398 1083c67 -115 101 -240 101 -374c0 -135 -34 -260 -101 -373c-67 -114 -158 -204 -273 -270s-240 -99 -375 -99s-260 33 -375 99c-115 67 -207 157 -274 270s-101 238 -101 373c0 134 34 259 101 374c67 113 159 203 274 270
c115 66 240 99 375 99s260 -33 375 -99c115 -67 206 -157 273 -270zM321 1819h858v-252h-858v252z" />
    <glyph glyph-name="Omacron" unicode="&#x14d;" 
d="M158 1409h858v-252h-858v252zM81 236c-54 84 -81 178 -81 282c0 77 16 150 47 218s74 126 129 175s118 88 189 115s145 40 221 40c77 0 151 -13 222 -40c70 -25 133 -63 189 -114c55 -51 98 -110 129 -176c31 -68 47 -141 47 -218c0 -80 -15 -153 -46 -218
c-31 -67 -75 -126 -130 -177c-57 -51 -120 -89 -189 -115c-71 -27 -145 -41 -222 -41c-101 0 -198 24 -289 72s-163 114 -216 197zM586 257c72 0 135 26 188 77s80 113 80 184c0 47 -12 90 -37 129c-26 40 -59 71 -99 94c-41 23 -85 35 -132 35c-46 0 -90 -12 -131 -35
c-40 -23 -73 -54 -99 -94c-25 -39 -37 -82 -37 -129c0 -71 27 -133 80 -184s116 -77 187 -77z" />
    <glyph glyph-name="Obreve" unicode="&#x14e;" horiz-adv-x="1549" 
d="M402 913c-36 -65 -54 -133 -54 -204s18 -139 55 -204c37 -66 86 -118 146 -157c61 -39 128 -59 201 -59c72 0 139 20 200 59s110 92 147 157c36 65 54 133 54 204s-18 139 -54 204s-85 117 -146 156c-63 39 -130 59 -201 59c-73 0 -140 -20 -201 -59
c-62 -39 -111 -91 -147 -156zM1398 1083c67 -115 101 -240 101 -374c0 -135 -34 -260 -101 -373c-67 -114 -158 -204 -273 -270s-240 -99 -375 -99s-260 33 -375 99c-115 67 -207 157 -274 270s-101 238 -101 373c0 134 34 259 101 374c67 113 159 203 274 270
c115 66 240 99 375 99s260 -33 375 -99c115 -67 206 -157 273 -270zM1149 1883h-238c-7 -37 -23 -66 -48 -87c-27 -21 -61 -32 -100 -32c-41 0 -75 11 -102 32c-26 21 -42 50 -49 87h-240c1 -66 17 -125 50 -178c34 -54 79 -95 136 -124c60 -29 126 -44 198 -44
c118 0 210 30 277 90c67 59 106 145 116 256z" />
    <glyph glyph-name="Obreve" unicode="&#x14f;" 
d="M975 1504h-238c-7 -37 -23 -66 -48 -87c-27 -21 -61 -32 -100 -32c-41 0 -75 11 -102 32c-26 21 -42 50 -49 87h-240c1 -66 17 -125 50 -178c34 -54 79 -95 136 -124c60 -29 126 -44 198 -44c118 0 210 30 277 90c67 59 106 145 116 256zM81 236c-54 84 -81 178 -81 282
c0 77 16 150 47 218s74 126 129 175s118 88 189 115s145 40 221 40c77 0 151 -13 222 -40c70 -25 133 -63 189 -114c55 -51 98 -110 129 -176c31 -68 47 -141 47 -218c0 -80 -15 -153 -46 -218c-31 -67 -75 -126 -130 -177c-57 -51 -120 -89 -189 -115
c-71 -27 -145 -41 -222 -41c-101 0 -198 24 -289 72s-163 114 -216 197zM586 257c72 0 135 26 188 77s80 113 80 184c0 47 -12 90 -37 129c-26 40 -59 71 -99 94c-41 23 -85 35 -132 35c-46 0 -90 -12 -131 -35c-40 -23 -73 -54 -99 -94c-25 -39 -37 -82 -37 -129
c0 -71 27 -133 80 -184s116 -77 187 -77z" />
    <glyph glyph-name="Ohungarumlaut" unicode="&#x150;" horiz-adv-x="1549" 
d="M402 913c-36 -65 -54 -133 -54 -204s18 -139 55 -204c37 -66 86 -118 146 -157c61 -39 128 -59 201 -59c72 0 139 20 200 59s110 92 147 157c36 65 54 133 54 204s-18 139 -54 204s-85 117 -146 156c-63 39 -130 59 -201 59c-73 0 -140 -20 -201 -59
c-62 -39 -111 -91 -147 -156zM1398 1083c67 -115 101 -240 101 -374c0 -135 -34 -260 -101 -373c-67 -114 -158 -204 -273 -270s-240 -99 -375 -99s-260 33 -375 99c-115 67 -207 157 -274 270s-101 238 -101 373c0 134 34 259 101 374c67 113 159 203 274 270
c115 66 240 99 375 99s260 -33 375 -99c115 -67 206 -157 273 -270zM686 1567l218 403h-295l-144 -403h221zM1026 1567l218 403h-295l-144 -403h221z" />
    <glyph glyph-name="Ohungarumlaut" unicode="&#x151;" 
d="M513 1158l218 403h-295l-144 -403h221zM853 1158l218 403h-295l-144 -403h221zM81 236c-54 84 -81 178 -81 282c0 77 16 150 47 218s74 126 129 175s118 88 189 115s145 40 221 40c77 0 151 -13 222 -40c70 -25 133 -63 189 -114c55 -51 98 -110 129 -176
c31 -68 47 -141 47 -218c0 -80 -15 -153 -46 -218c-31 -67 -75 -126 -130 -177c-57 -51 -120 -89 -189 -115c-71 -27 -145 -41 -222 -41c-101 0 -198 24 -289 72s-163 114 -216 197zM586 257c72 0 135 26 188 77s80 113 80 184c0 47 -12 90 -37 129c-26 40 -59 71 -99 94
c-41 23 -85 35 -132 35c-46 0 -90 -12 -131 -35c-40 -23 -73 -54 -99 -94c-25 -39 -37 -82 -37 -129c0 -71 27 -133 80 -184s116 -77 187 -77z" />
    <glyph glyph-name="OE" unicode="&#x152;" horiz-adv-x="2037" 
d="M382 913c-36 -65 -54 -133 -54 -204s18 -139 55 -204c37 -66 86 -118 146 -157c61 -39 128 -59 201 -59c72 0 139 20 200 59s110 92 147 157c36 65 54 133 54 204s-18 139 -54 204s-85 117 -146 156c-63 39 -130 59 -201 59c-73 0 -140 -20 -201 -59
c-62 -39 -111 -91 -147 -156zM1987 0h-1014c-71 -22 -145 -33 -223 -33c-135 0 -260 33 -375 99c-115 67 -207 157 -274 270s-101 238 -101 373c0 134 34 259 101 374c67 113 159 203 274 270c115 66 240 99 375 99c78 0 152 -11 223 -33h972l-3 -301h-508v-246h281l81 -299
h-362v-274h551z" />
    <glyph glyph-name="OE" unicode="&#x153;" horiz-adv-x="2042" 
d="M586 257c73 0 135 25 188 76c53 52 80 113 80 184c0 47 -12 90 -37 129c-26 40 -59 71 -99 94c-41 23 -85 35 -132 35c-46 0 -90 -12 -131 -35c-40 -23 -73 -54 -99 -94c-25 -39 -37 -82 -37 -129c0 -71 27 -132 80 -184c53 -51 115 -76 187 -76zM1234 675h392
c-24 28 -47 49 -70 62c-39 23 -81 34 -126 34s-87 -11 -126 -34c-23 -13 -46 -34 -70 -62zM1018 143l-21 -20c-57 -51 -120 -89 -189 -115c-71 -27 -145 -41 -222 -41c-101 0 -198 24 -289 72c-91 47 -163 112 -216 196c-54 85 -81 179 -81 282c0 77 16 150 47 219
c31 67 74 125 129 174s118 88 189 115s145 40 221 40c77 0 151 -13 222 -40c70 -25 133 -63 189 -114c5 -5 12 -13 23 -22l17 16c53 51 113 89 180 114c68 27 139 40 213 40s145 -13 212 -40c67 -25 128 -63 181 -113c53 -49 94 -107 124 -174s45 -139 45 -216v-8
c0 -5 0 -9 -1 -11l-2 -17h-124v-2h-688c8 -56 32 -104 73 -145c51 -50 111 -75 180 -75s129 25 180 75l2 3l3 3l3 4l2 2l172 -244c-48 -39 -98 -70 -150 -91c-67 -27 -138 -40 -212 -40c-99 0 -192 24 -277 71c-51 28 -96 62 -135 102z" />
    <glyph glyph-name="Racute" unicode="&#x154;" horiz-adv-x="1137" 
d="M348 1118v-397c59 0 107 7 146 21c38 13 68 36 89 67s31 70 31 119c0 73 -22 123 -66 150c-45 27 -111 40 -200 40zM348 3h-348v1416h395c111 0 210 -15 297 -44c85 -29 151 -76 199 -141c47 -65 71 -150 71 -253c0 -76 -21 -149 -62 -218s-96 -116 -165 -142l352 -620
h-407l-328 636h-4v-634zM511 1537l218 403h-295l-144 -403h221z" />
    <glyph glyph-name="Racute" unicode="&#x155;" horiz-adv-x="593" 
d="M325 1158l218 403h-295l-144 -403h221zM525 757v302c-21 3 -42 5 -65 6h-18c-295 -15 -442 -168 -442 -459v-606h320v606c0 110 41 167 122 170h18c25 -1 47 -7 65 -19z" />
    <glyph glyph-name="Rcommaaccent" unicode="&#x156;" horiz-adv-x="1137" 
d="M348 1118v-397c59 0 107 7 146 21c38 13 68 36 89 67s31 70 31 119c0 73 -22 123 -66 150c-45 27 -111 40 -200 40zM348 3h-348v1416h395c111 0 210 -15 297 -44c85 -29 151 -76 199 -141c47 -65 71 -150 71 -253c0 -76 -21 -149 -62 -218s-96 -116 -165 -142l352 -620
h-407l-328 636h-4v-634zM670 -144v-114c9 -168 -84 -267 -281 -297l-1 99c31 8 56 17 77 28c-37 5 -69 21 -97 48c-31 31 -48 68 -51 111v125h353z" />
    <glyph glyph-name="Rcommaaccent" unicode="&#x157;" horiz-adv-x="575" 
d="M321 -144v-114c9 -168 -77 -267 -256 -297v99c31 10 55 19 70 28c-33 5 -63 21 -89 48c-28 32 -43 69 -46 111v125h321zM525 757v302c-21 3 -42 5 -65 6h-18c-295 -15 -442 -168 -442 -459v-606h320v606c0 110 41 167 122 170h18c25 -1 47 -7 65 -19z" />
    <glyph glyph-name="Rcaron" unicode="&#x158;" horiz-adv-x="1137" 
d="M348 1118v-397c59 0 107 7 146 21c38 13 68 36 89 67s31 70 31 119c0 73 -22 123 -66 150c-45 27 -111 40 -200 40zM348 3h-348v1416h395c111 0 210 -15 297 -44c85 -29 151 -76 199 -141c47 -65 71 -150 71 -253c0 -76 -21 -149 -62 -218s-96 -116 -165 -142l352 -620
h-407l-328 636h-4v-634zM346 2004h-251l374 -467l391 467h-241l-136 -153z" />
    <glyph glyph-name="Rcaron" unicode="&#x159;" horiz-adv-x="815" 
d="M143 1626h-251l374 -467l391 467h-241l-136 -153zM525 757v302c-21 3 -42 5 -65 6h-18c-295 -15 -442 -168 -442 -459v-606h320v606c0 110 41 167 122 170h18c25 -1 47 -7 65 -19z" />
    <glyph glyph-name="Sacute" unicode="&#x15a;" horiz-adv-x="972" 
d="M891 1288l-171 -244c-41 39 -77 66 -109 83c-33 17 -72 26 -116 26c-33 0 -63 -10 -92 -31c-30 -21 -45 -48 -45 -82c0 -48 33 -86 98 -114c55 -24 124 -52 205 -83c71 -28 132 -72 184 -133c51 -61 77 -151 77 -270c0 -152 -46 -269 -137 -350
c-91 -82 -206 -123 -347 -123c-81 0 -160 14 -236 42c-77 28 -144 70 -202 126l188 268c60 -76 139 -114 237 -114c39 0 77 11 113 33c35 21 53 53 53 94c0 49 -33 87 -99 116c-20 9 -54 24 -102 43l-52 21l-53 22c-70 29 -131 73 -183 133c-51 59 -76 146 -76 263
c0 89 22 167 66 234c43 67 100 117 171 152c69 35 143 52 223 52c73 0 145 -14 216 -42c71 -29 134 -69 189 -122zM555 1537l218 403h-295l-144 -403h221z" />
    <glyph glyph-name="Sacute" unicode="&#x15b;" horiz-adv-x="884" 
d="M0 108l162 215c63 -63 141 -95 232 -95c95 0 143 28 143 83c0 31 -26 52 -79 65l-72 18l-106 28c-67 17 -123 49 -167 95c-45 47 -67 118 -67 213c0 73 18 135 55 186c37 50 85 87 145 112s126 37 199 37c39 0 81 -6 124 -17c47 -15 87 -32 122 -52
c39 -22 73 -47 104 -74l-176 -175c-51 38 -107 57 -168 57c-73 0 -109 -20 -109 -61c0 -35 27 -61 81 -76c51 -15 111 -30 179 -46c67 -17 122 -48 165 -92c45 -45 67 -116 67 -214c0 -73 -19 -135 -58 -188c-39 -54 -91 -94 -155 -119c-66 -27 -133 -41 -201 -41
c-56 0 -108 5 -157 14c-48 9 -92 24 -131 44c-45 22 -89 50 -132 83zM539 1158l218 403h-295l-144 -403h221z" />
    <glyph glyph-name="Scircumflex" unicode="&#x15c;" horiz-adv-x="972" 
d="M891 1288l-171 -244c-41 39 -77 66 -109 83c-33 17 -72 26 -116 26c-33 0 -63 -10 -92 -31c-30 -21 -45 -48 -45 -82c0 -48 33 -86 98 -114c55 -24 124 -52 205 -83c71 -28 132 -72 184 -133c51 -61 77 -151 77 -270c0 -152 -46 -269 -137 -350
c-91 -82 -206 -123 -347 -123c-81 0 -160 14 -236 42c-77 28 -144 70 -202 126l188 268c60 -76 139 -114 237 -114c39 0 77 11 113 33c35 21 53 53 53 94c0 49 -33 87 -99 116c-20 9 -54 24 -102 43l-52 21l-53 22c-70 29 -131 73 -183 133c-51 59 -76 146 -76 263
c0 89 22 167 66 234c43 67 100 117 171 152c69 35 143 52 223 52c73 0 145 -14 216 -42c71 -29 134 -69 189 -122zM625 1537h252l-375 467l-391 -467h242l136 153z" />
    <glyph glyph-name="Scircumflex" unicode="&#x15d;" horiz-adv-x="887" 
d="M0 108l162 215c63 -63 141 -95 232 -95c95 0 143 28 143 83c0 31 -26 52 -79 65l-72 18l-106 28c-67 17 -123 49 -167 95c-45 47 -67 118 -67 213c0 73 18 135 55 186c37 50 85 87 145 112s126 37 199 37c39 0 81 -6 124 -17c47 -15 87 -32 122 -52
c39 -22 73 -47 104 -74l-176 -175c-51 38 -107 57 -168 57c-73 0 -109 -20 -109 -61c0 -35 27 -61 81 -76c51 -15 111 -30 179 -46c67 -17 122 -48 165 -92c45 -45 67 -116 67 -214c0 -73 -19 -135 -58 -188c-39 -54 -91 -94 -155 -119c-66 -27 -133 -41 -201 -41
c-56 0 -108 5 -157 14c-48 9 -92 24 -131 44c-45 22 -89 50 -132 83zM585 1240h252l-375 467l-391 -467h242l136 153z" />
    <glyph glyph-name="Scedilla" unicode="&#x15e;" horiz-adv-x="972" 
d="M400 -138l51 105h-13c-81 0 -160 14 -236 42c-77 28 -144 70 -202 126l188 268c60 -76 139 -114 237 -114c39 0 77 11 113 33c35 21 53 53 53 94c0 49 -33 87 -99 116c-20 9 -54 24 -102 43l-52 21l-53 22c-70 29 -131 73 -183 133c-51 59 -76 146 -76 263
c0 89 22 167 66 234c43 67 100 117 171 152c69 35 143 52 223 52c73 0 145 -14 216 -42c71 -29 134 -69 189 -122l-171 -244c-41 39 -77 66 -109 83c-33 17 -72 26 -116 26c-33 0 -63 -10 -92 -31c-30 -21 -45 -48 -45 -82c0 -48 33 -86 98 -114c55 -24 124 -52 205 -83
c71 -28 132 -72 184 -133c51 -61 77 -151 77 -270c0 -152 -46 -269 -137 -350c-53 -48 -115 -82 -186 -102l-35 -55c25 -9 48 -26 70 -51c23 -27 35 -57 35 -89c0 -47 -25 -88 -74 -121c-47 -32 -104 -48 -171 -48c-59 0 -115 15 -170 46l71 92c31 -24 64 -36 99 -36
c33 0 59 7 80 22c19 13 29 28 29 45s-9 32 -28 45c-20 14 -55 22 -105 24z" />
    <glyph glyph-name="Scedilla" unicode="&#x15f;" horiz-adv-x="884" 
d="M356 -144l51 103c-61 1 -109 6 -144 14c-48 9 -92 24 -131 44c-42 21 -86 49 -132 84l162 216c63 -64 141 -96 232 -96c95 0 143 28 143 84c0 30 -26 52 -79 66l-72 18l-106 28c-67 17 -122 49 -167 96s-67 118 -67 214c0 75 18 137 55 188s86 89 145 113
c60 25 126 37 199 37c41 0 82 -6 124 -18c45 -13 86 -30 122 -51c40 -23 75 -48 104 -75l-176 -176c-51 38 -107 57 -168 57c-73 0 -109 -20 -109 -61c0 -36 27 -62 81 -77c51 -15 111 -30 179 -46c66 -17 121 -48 165 -93c45 -45 67 -117 67 -216c0 -73 -19 -136 -58 -189
s-91 -93 -155 -120c-23 -10 -46 -18 -68 -24l-33 -50c25 -9 49 -26 70 -50c23 -27 35 -56 35 -87c0 -45 -25 -85 -74 -118c-47 -31 -104 -47 -171 -47c-58 0 -115 15 -170 45l71 90c31 -23 64 -35 99 -35c33 0 59 7 80 21c19 13 29 28 29 44c0 17 -9 31 -28 44
c-21 13 -56 21 -105 23z" />
    <glyph glyph-name="Scaron" unicode="&#x160;" horiz-adv-x="972" 
d="M891 1288l-171 -244c-41 39 -77 66 -109 83c-33 17 -72 26 -116 26c-33 0 -63 -10 -92 -31c-30 -21 -45 -48 -45 -82c0 -48 33 -86 98 -114c55 -24 124 -52 205 -83c71 -28 132 -72 184 -133c51 -61 77 -151 77 -270c0 -152 -46 -269 -137 -350
c-91 -82 -206 -123 -347 -123c-81 0 -160 14 -236 42c-77 28 -144 70 -202 126l188 268c60 -76 139 -114 237 -114c39 0 77 11 113 33c35 21 53 53 53 94c0 49 -33 87 -99 116c-20 9 -54 24 -102 43l-52 21l-53 22c-70 29 -131 73 -183 133c-51 59 -76 146 -76 263
c0 89 22 167 66 234c43 67 100 117 171 152c69 35 143 52 223 52c73 0 145 -14 216 -42c71 -29 134 -69 189 -122zM372 2004h-252l375 -467l391 467h-242l-136 -153z" />
    <glyph glyph-name="Scaron" unicode="&#x161;" horiz-adv-x="888" 
d="M0 108l162 215c63 -63 141 -95 232 -95c95 0 143 28 143 83c0 31 -26 52 -79 65l-72 18l-106 28c-67 17 -123 49 -167 95c-45 47 -67 118 -67 213c0 73 18 135 55 186c37 50 85 87 145 112s126 37 199 37c39 0 81 -6 124 -17c47 -15 87 -32 122 -52
c39 -22 73 -47 104 -74l-176 -175c-51 38 -107 57 -168 57c-73 0 -109 -20 -109 -61c0 -35 27 -61 81 -76c51 -15 111 -30 179 -46c67 -17 122 -48 165 -92c45 -45 67 -116 67 -214c0 -73 -19 -135 -58 -188c-39 -54 -91 -94 -155 -119c-66 -27 -133 -41 -201 -41
c-56 0 -108 5 -157 14c-48 9 -92 24 -131 44c-45 22 -89 50 -132 83zM324 1626h-252l375 -467l391 467h-242l-136 -153z" />
    <glyph glyph-name="Tcedilla" unicode="&#x162;" horiz-adv-x="1095" 
d="M401 -138l67 138h-108v1096h-273l-87 323h961l84 -323h-337v-1096h-100l-43 -67c25 -9 48 -26 70 -51c23 -27 35 -57 35 -89c0 -47 -25 -88 -74 -121c-47 -32 -104 -48 -171 -48c-59 0 -115 15 -170 46l71 92c31 -24 64 -36 99 -36c33 0 59 7 80 22c19 13 29 28 29 45
s-9 32 -28 45c-20 14 -55 22 -105 24z" />
    <glyph glyph-name="Tcaron" unicode="&#x164;" horiz-adv-x="1095" 
d="M360 0v1096h-273l-87 323h961l84 -323h-337v-1096h-348zM420 2004h-251l374 -467l391 467h-241l-136 -153z" />
    <glyph glyph-name="Tcaron" unicode="&#x165;" horiz-adv-x="1215" 
d="M1189 1240v-114c9 -168 -84 -267 -281 -297l-1 99c31 8 56 17 77 28c-37 5 -69 21 -97 48c-31 31 -48 68 -51 111v125h353zM249 407v344h-211l72 274h139v394l319 -2v-392h212l-71 -274h-141v-319c0 -91 57 -136 170 -136c38 0 66 4 84 13l-92 -318c-15 -3 -32 -4 -49 -4
c-97 0 -176 15 -238 46c-64 31 -112 77 -145 139c-33 61 -49 139 -49 235z" />
    <glyph glyph-name="Tbar" unicode="&#x166;" horiz-adv-x="1095" 
d="M188 850h172v246h-273l-87 323h961l84 -323h-337v-246h150v-281h-150v-569h-348v569h-172v281z" />
    <glyph glyph-name="Tbar" unicode="&#x167;" horiz-adv-x="798" 
d="M0 658h175v95l-169 -1l3 270h166v397l319 -2v-395l181 1l1 -270h-182v-95h176v-271h-174c9 -74 65 -111 168 -111c38 0 66 4 84 13l-92 -318c-15 -3 -32 -4 -49 -4c-97 0 -176 15 -238 46c-64 31 -112 77 -145 139c-33 61 -49 139 -49 235h-175v271z" />
    <glyph glyph-name="Utilde" unicode="&#x168;" horiz-adv-x="1216" 
d="M818 1419l348 -1v-926c0 -107 -26 -201 -78 -280c-52 -80 -124 -141 -215 -182c-92 -42 -197 -63 -316 -63c-111 0 -209 18 -292 54c-84 36 -149 91 -195 166c-47 75 -70 168 -70 280v952l349 -1v-851c0 -57 6 -104 19 -143c13 -42 36 -75 68 -98c31 -25 74 -37 130 -37
c103 0 171 30 204 91c32 61 48 149 48 263v776zM886 1867h165c-15 -101 -45 -178 -89 -232c-44 -55 -112 -82 -203 -82c-35 0 -91 15 -169 44c-70 30 -121 45 -152 45c-25 0 -46 -10 -65 -31c-20 -21 -32 -45 -36 -74h-164c7 84 37 156 88 215s114 88 191 88
c43 0 105 -8 186 -23c82 -32 134 -48 156 -48c45 0 76 33 92 98z" />
    <glyph glyph-name="Utilde" unicode="&#x169;" horiz-adv-x="984" 
d="M769 1489h165c-15 -101 -45 -178 -89 -232c-44 -55 -112 -82 -203 -82c-35 0 -91 15 -169 44c-70 30 -121 45 -152 45c-25 0 -46 -10 -65 -31c-20 -21 -32 -45 -36 -74h-164c7 84 37 156 88 215s114 88 191 88c43 0 105 -8 186 -23c82 -32 134 -48 156 -48
c45 0 76 33 92 98zM320 428v596h-320v-596c0 -290 147 -443 442 -459h18c295 16 442 169 442 459v596h-320v-596c0 -109 -41 -166 -122 -169h-18c-81 3 -122 60 -122 169z" />
    <glyph glyph-name="Umacron" unicode="&#x16a;" horiz-adv-x="1216" 
d="M818 1419l348 -1v-926c0 -107 -26 -201 -78 -280c-52 -80 -124 -141 -215 -182c-92 -42 -197 -63 -316 -63c-111 0 -209 18 -292 54c-84 36 -149 91 -195 166c-47 75 -70 168 -70 280v952l349 -1v-851c0 -57 6 -104 19 -143c13 -42 36 -75 68 -98c31 -25 74 -37 130 -37
c103 0 171 30 204 91c32 61 48 149 48 263v776zM178 1789h858v-252h-858v252z" />
    <glyph glyph-name="Umacron" unicode="&#x16b;" horiz-adv-x="952" 
d="M22 1409h858v-252h-858v252zM320 428v596h-320v-596c0 -290 147 -443 442 -459h18c295 16 442 169 442 459v596h-320v-596c0 -109 -41 -166 -122 -169h-18c-81 3 -122 60 -122 169z" />
    <glyph glyph-name="Ubreve" unicode="&#x16c;" horiz-adv-x="1216" 
d="M818 1419l348 -1v-926c0 -107 -26 -201 -78 -280c-52 -80 -124 -141 -215 -182c-92 -42 -197 -63 -316 -63c-111 0 -209 18 -292 54c-84 36 -149 91 -195 166c-47 75 -70 168 -70 280v952l349 -1v-851c0 -57 6 -104 19 -143c13 -42 36 -75 68 -98c31 -25 74 -37 130 -37
c103 0 171 30 204 91c32 61 48 149 48 263v776zM972 1883h-239c-7 -37 -23 -66 -48 -87s-59 -32 -100 -32s-75 11 -102 32c-26 21 -42 50 -49 87h-240c1 -66 17 -125 50 -178c34 -54 79 -95 136 -124c60 -29 126 -44 199 -44c117 0 209 30 276 90c67 59 106 145 117 256z
" />
    <glyph glyph-name="Ubreve" unicode="&#x16d;" horiz-adv-x="952" 
d="M840 1504h-239c-7 -37 -23 -66 -48 -87s-59 -32 -100 -32s-75 11 -102 32c-26 21 -42 50 -49 87h-240c1 -66 17 -125 50 -178c34 -54 79 -95 136 -124c60 -29 126 -44 199 -44c117 0 209 30 276 90c67 59 106 145 117 256zM320 428v596h-320v-596
c0 -290 147 -443 442 -459h18c295 16 442 169 442 459v596h-320v-596c0 -109 -41 -166 -122 -169h-18c-81 3 -122 60 -122 169z" />
    <glyph glyph-name="Uring" unicode="&#x16e;" horiz-adv-x="1216" 
d="M818 1419l348 -1v-926c0 -107 -26 -201 -78 -280c-52 -80 -124 -141 -215 -182c-92 -42 -197 -63 -316 -63c-111 0 -209 18 -292 54c-84 36 -149 91 -195 166c-47 75 -70 168 -70 280v952l349 -1v-851c0 -57 6 -104 19 -143c13 -42 36 -75 68 -98c31 -25 74 -37 130 -37
c103 0 171 30 204 91c32 61 48 149 48 263v776zM746 1604c-45 -45 -99 -67 -163 -67c-63 0 -117 22 -162 67s-68 99 -68 162s23 118 68 163s99 67 162 67c64 0 118 -22 163 -67s67 -99 67 -163c0 -63 -22 -117 -67 -162zM523 1768c0 -16 6 -30 18 -41c11 -11 25 -17 41 -17
c15 0 29 6 42 17c11 11 17 25 17 41c0 17 -6 31 -17 42c-13 11 -27 17 -42 17c-16 0 -30 -6 -41 -17c-12 -11 -18 -25 -18 -42z" />
    <glyph glyph-name="Uring" unicode="&#x16f;" horiz-adv-x="952" 
d="M614 1223c-45 -45 -99 -67 -163 -67c-63 0 -117 22 -162 67s-68 99 -68 162s23 118 68 163s99 67 162 67c64 0 118 -22 163 -67s67 -99 67 -163c0 -63 -22 -117 -67 -162zM392 1385c0 -16 6 -30 18 -41c11 -11 25 -17 41 -17c15 0 29 6 42 17c11 11 17 25 17 41
c0 17 -6 31 -17 42c-13 11 -27 17 -42 17c-16 0 -30 -6 -41 -17c-12 -11 -18 -25 -18 -42zM320 428v596h-320v-596c0 -290 147 -443 442 -459h18c295 16 442 169 442 459v596h-320v-596c0 -109 -41 -166 -122 -169h-18c-81 3 -122 60 -122 169z" />
    <glyph glyph-name="Uhungarumlaut" unicode="&#x170;" horiz-adv-x="1216" 
d="M818 1419l348 -1v-926c0 -107 -26 -201 -78 -280c-52 -80 -124 -141 -215 -182c-92 -42 -197 -63 -316 -63c-111 0 -209 18 -292 54c-84 36 -149 91 -195 166c-47 75 -70 168 -70 280v952l349 -1v-851c0 -57 6 -104 19 -143c13 -42 36 -75 68 -98c31 -25 74 -37 130 -37
c103 0 171 30 204 91c32 61 48 149 48 263v776zM536 1537l218 403h-295l-144 -403h221zM876 1537l218 403h-295l-144 -403h221z" />
    <glyph glyph-name="Uhungarumlaut" unicode="&#x171;" horiz-adv-x="1002" 
d="M394 1158l218 403h-295l-144 -403h221zM734 1158l218 403h-295l-144 -403h221zM320 428v596h-320v-596c0 -290 147 -443 442 -459h18c295 16 442 169 442 459v596h-320v-596c0 -109 -41 -166 -122 -169h-18c-81 3 -122 60 -122 169z" />
    <glyph glyph-name="Uogonek" unicode="&#x172;" horiz-adv-x="1216" 
d="M70 187c-47 75 -70 168 -70 280v952l349 -1v-851c0 -57 6 -104 19 -143c13 -42 36 -75 68 -98c31 -25 74 -37 130 -37c103 0 171 30 204 91c32 61 48 149 48 263v776l348 -1v-926c0 -107 -26 -201 -78 -280c-52 -80 -124 -141 -215 -182c-102 -50 -165 -86 -189 -107
s-49 -45 -75 -73c-24 -28 -44 -63 -59 -104c-10 -28 -6 -53 12 -74c21 -27 55 -42 102 -47c57 -7 136 19 236 78l78 -282c-143 -60 -270 -84 -382 -71c-136 15 -240 66 -311 153c-75 91 -91 194 -50 308c25 65 68 124 129 177c-35 9 -68 20 -99 33c-84 36 -149 91 -195 166z
" />
    <glyph glyph-name="Uogonek" unicode="&#x173;" horiz-adv-x="952" 
d="M136 -428c69 -76 167 -121 295 -136c105 -12 225 7 358 56l-79 243c-93 -49 -166 -70 -220 -64c-45 5 -77 19 -97 42c-17 21 -22 42 -13 64c13 35 31 65 54 88c42 48 124 94 246 139c123 45 197 185 222 420v596h-320v-596c0 -110 -41 -167 -122 -170h-18
c-81 3 -122 60 -122 170v596h-320v-596c0 -210 77 -348 231 -414c-3 -3 -7 -6 -12 -9l-4 -3l-4 -3c-62 -45 -105 -98 -128 -158c-37 -95 -20 -184 53 -265z" />
    <glyph glyph-name="Wcircumflex" unicode="&#x174;" horiz-adv-x="1886" 
d="M1054 1537h252l-375 467l-391 -467h242l136 153zM0 1419h350l201 -682l354 678l348 -690l213 694h370l-534 -1450l-393 700l-420 -700z" />
    <glyph glyph-name="Wcircumflex" unicode="&#x175;" horiz-adv-x="1538" 
d="M889 1159h252l-375 467l-391 -467h242l136 153zM906 1023h-324v-591c0 -110 -44 -165 -131 -165s-131 55 -131 165v591h-320v-591c0 -291 147 -444 442 -459h18c119 6 213 34 284 85c71 -51 165 -79 284 -85h18c295 15 442 168 442 459v591h-320v-591
c0 -110 -44 -165 -131 -165s-131 55 -131 165v591z" />
    <glyph glyph-name="Ycircumflex" unicode="&#x176;" horiz-adv-x="1300" 
d="M814 657l436 762h-404l-219 -419l-220 419h-407l446 -765v-654h368v657zM766 1537h252l-375 467l-391 -467h242l136 153z" />
    <glyph glyph-name="Ycircumflex" unicode="&#x177;" horiz-adv-x="1038" 
d="M670 -1v-117h-1v-10l-1 -3v-2c-1 -11 -3 -19 -5 -23l-2 -7l-2 -7l-2 -5l-1 -3c-15 -36 -38 -65 -69 -86c-33 -23 -69 -34 -108 -34c-51 0 -94 17 -131 52s-56 77 -59 128l-289 -169c13 -45 48 -97 104 -154c86 -85 200 -129 343 -132h53c65 0 129 11 191 34
c69 25 124 57 165 98c88 89 132 196 132 320v1144l-320 -1v-594c0 -60 -14 -106 -42 -137c-29 -31 -68 -47 -117 -47c-51 0 -90 15 -118 46s-42 77 -42 138v595h-320v-617c0 -321 158 -471 473 -451c81 0 137 15 168 44zM625 1158h252l-375 467l-391 -467h242l136 153z" />
    <glyph glyph-name="Ydieresis" unicode="&#x178;" horiz-adv-x="1300" 
d="M814 657l436 762h-404l-219 -419l-220 419h-407l446 -765v-654h368v657zM743 1629c-16 28 -24 58 -24 89c0 33 8 62 25 89c16 27 38 49 65 66s56 25 88 25c53 0 97 -17 132 -52s53 -78 53 -128c0 -33 -8 -64 -24 -91c-16 -28 -38 -50 -67 -66s-60 -24 -94 -24
c-33 0 -62 8 -89 25c-28 17 -50 39 -65 67zM213 1629c-16 28 -24 58 -24 89c0 33 8 62 25 89c16 27 38 49 65 66s56 25 88 25c53 0 97 -17 132 -52s53 -78 53 -128c0 -33 -8 -64 -24 -91c-16 -28 -38 -50 -67 -66s-60 -24 -94 -24c-33 0 -62 8 -89 25c-28 17 -50 39 -65 67z
" />
    <glyph glyph-name="Zacute" unicode="&#x179;" horiz-adv-x="1298" 
d="M0 0l678 1096h-485l-101 323h1156l-674 -1095h614l2 -324h-1190zM776 1537l218 403h-295l-144 -403h221z" />
    <glyph glyph-name="Zacute" unicode="&#x17a;" horiz-adv-x="1035" 
d="M971 1067l-465 -778h479l-77 -289h-908l482 799h-400l64 268h825zM635 1159l218 403h-295l-144 -403h221z" />
    <glyph glyph-name="Zdotaccent" unicode="&#x17b;" horiz-adv-x="1298" 
d="M0 0l678 1096h-485l-101 323h1156l-674 -1095h619l-3 -324h-1190zM536 1923c28 16 58 24 89 24s61 -8 89 -24c27 -17 49 -39 66 -66s25 -56 25 -88c0 -53 -17 -97 -52 -132s-78 -53 -128 -53c-33 0 -64 8 -91 24c-28 16 -50 38 -66 67s-24 61 -24 94s8 62 25 89
c17 28 39 50 67 65z" />
    <glyph glyph-name="Zdotaccent" unicode="&#x17c;" horiz-adv-x="1035" 
d="M971 1067l-465 -778h479l-77 -289h-908l482 799h-400l64 268h825zM454 1497c28 16 58 24 89 24s61 -8 89 -24c27 -17 49 -39 66 -66s25 -56 25 -88c0 -53 -17 -97 -52 -132s-78 -53 -128 -53c-33 0 -64 8 -91 24c-28 16 -50 38 -66 67s-24 61 -24 94s8 62 25 89
c17 28 39 50 67 65z" />
    <glyph glyph-name="Zcaron" unicode="&#x17d;" horiz-adv-x="1298" 
d="M0 0l678 1096h-485l-101 323h1156l-674 -1095h614l2 -324h-1190zM609 2004h-252l375 -467l391 467h-242l-136 -153z" />
    <glyph glyph-name="Zcaron" unicode="&#x17e;" horiz-adv-x="1035" 
d="M971 1067l-465 -778h479l-77 -289h-908l482 799h-400l64 268h825zM443 1626h-251l374 -467l391 467h-241l-136 -153z" />
    <glyph glyph-name="longs" unicode="&#x17f;" horiz-adv-x="570" 
d="M520 1503l-476 476l-1 -288c-79 -5 -132 -19 -159 -43c-27 -25 -41 -74 -41 -147h-274v-750h-319h750v274c0 123 21 219 64 286s103 115 180 146s169 46 276 46z" />
    <glyph glyph-name="perthousand" unicode="&#x2030;" horiz-adv-x="2006" 
d="M483 915c-55 -55 -122 -83 -200 -83s-145 28 -200 83s-83 122 -83 200c0 79 28 146 83 201s121 82 200 82s145 -27 200 -82s83 -122 83 -201c0 -78 -28 -145 -83 -200zM170 1115c0 -31 11 -58 33 -80s49 -33 80 -33s58 11 80 33s33 49 33 80s-11 58 -33 80s-49 33 -80 33
s-58 -11 -80 -33s-33 -49 -33 -80zM1253 107c-55 -55 -122 -83 -200 -83s-145 28 -200 83s-83 122 -83 200c0 79 28 146 83 201s121 82 200 82s145 -27 200 -82s83 -122 83 -201c0 -78 -28 -145 -83 -200zM940 307c0 -31 11 -58 33 -80s49 -33 80 -33s58 11 80 33
s33 49 33 80s-11 58 -33 80s-49 33 -80 33s-58 -11 -80 -33s-33 -49 -33 -80zM1873 107c-55 -55 -122 -83 -200 -83s-145 28 -200 83s-83 122 -83 200c0 79 28 146 83 201s121 82 200 82s145 -27 200 -82s83 -122 83 -201c0 -78 -28 -145 -83 -200zM1560 307
c0 -31 11 -58 33 -80s49 -33 80 -33s58 11 80 33s33 49 33 80s-11 58 -33 80s-49 33 -80 33s-58 -11 -80 -33s-33 -49 -33 -80zM1048 1419l-713 -1419h-159l710 1419h162z" />
    <glyph glyph-name="_377" horiz-adv-x="643" 
d="M222 1161v161h157v-161c31 -7 60 -17 87 -30c53 -27 95 -66 127 -118l-141 -82l-1 1l-4 3l-7 7l-4 3l-3 3c-3 2 -6 5 -10 8c-13 12 -24 20 -31 25c-10 7 -20 12 -30 15c-11 4 -23 6 -38 6c-29 0 -54 -8 -73 -23c-19 -16 -28 -40 -28 -71c0 -24 6 -42 17 -54
s25 -20 42 -24c18 -4 37 -6 58 -7l16 -2h43v-143h-18c-8 0 -13 0 -16 1h-32c-39 0 -70 -5 -95 -16c-23 -12 -35 -35 -35 -69c0 -35 11 -60 32 -76c21 -17 48 -25 81 -25c31 0 58 7 81 20c21 14 43 35 66 64l133 -136c-21 -25 -48 -49 -79 -70c-31 -20 -64 -36 -99 -47
c-13 -4 -26 -7 -39 -9v-171h-157v174c-8 1 -16 3 -25 5c-37 11 -71 27 -102 48s-55 49 -73 82c-17 34 -26 74 -26 119c0 27 5 52 14 76c10 26 23 49 40 69c17 19 37 36 62 49c-27 24 -48 48 -61 72c-12 27 -18 57 -18 91c0 48 12 91 36 128c24 36 56 64 97 83
c18 9 37 16 56 21z" />
    <glyph glyph-name="_378" horiz-adv-x="1193" 
d="M455 740c-40 -23 -73 -54 -99 -94c-25 -39 -37 -82 -37 -129c0 -71 27 -132 80 -184c53 -51 115 -76 188 -76c72 0 134 25 187 76c53 52 80 113 80 184c0 47 -12 90 -37 129c-26 40 -59 71 -99 94c-41 23 -85 35 -131 35c-47 0 -91 -12 -132 -35zM854 -1v28
c-84 -40 -173 -60 -267 -60c-77 0 -151 14 -222 41s-134 65 -188 115c-56 50 -99 109 -130 176c-31 69 -47 141 -47 218s16 150 47 219c30 65 73 123 130 175c57 51 120 89 188 114c71 27 145 40 222 40s151 -13 222 -40c19 -8 37 -20 56 -35l278 -1v-990h-289z" />
    <glyph glyph-name="_377" horiz-adv-x="1005" 
d="M300 316c0 -35 11 -63 33 -84c23 -22 56 -33 97 -33c58 0 105 20 140 59c36 41 54 94 54 159v47l-185 -24c-93 -15 -139 -57 -139 -124zM938 0h-293c-31 -11 -65 -17 -101 -20c-207 -19 -350 9 -427 84c-78 75 -117 160 -117 255c0 198 117 313 351 345l254 33
c0 33 -15 60 -45 81c-31 21 -72 31 -121 31c-86 9 -192 -18 -318 -82v273c101 45 227 67 377 67c135 0 244 -39 326 -118c81 -79 120 -231 117 -456z" />
    <glyph glyph-name="_379" horiz-adv-x="1225" 
d="M719 750c41 -23 74 -54 99 -91s37 -79 37 -125c0 -69 -27 -129 -80 -179c-53 -49 -116 -74 -188 -74c-71 0 -134 25 -187 74c-53 50 -80 110 -80 179c0 46 12 88 37 125s58 68 99 91s84 34 131 34s91 -11 132 -34zM311 2v61c85 -42 177 -63 276 -63c77 0 151 13 222 39
s133 63 188 112s99 106 130 171c31 67 47 137 47 212s-16 145 -47 211c-31 64 -74 120 -130 169c-52 48 -115 85 -188 112c-73 25 -147 38 -222 38s-149 -13 -222 -38l-23 -9l-22 -10v417l-321 2l1 -1423z" />
    <glyph glyph-name="_380" horiz-adv-x="1225" 
d="M816 659c25 -37 37 -79 37 -125c0 -69 -27 -129 -80 -179c-53 -49 -116 -74 -187 -74c-72 0 -135 25 -188 74c-53 50 -80 110 -80 179c0 46 12 88 37 125s58 68 99 91s85 34 132 34s90 -11 131 -34s74 -54 99 -91zM862 63v-61l311 1l1 1423l-321 -2v-417l-22 10l-23 9
c-73 25 -147 38 -222 38s-149 -13 -222 -38c-73 -27 -136 -64 -188 -112c-56 -49 -99 -105 -130 -169c-31 -66 -47 -136 -47 -211s16 -145 47 -212c31 -65 75 -122 130 -171s117 -86 188 -112s145 -39 222 -39c99 0 191 21 276 63z" />
    <glyph glyph-name="_381" horiz-adv-x="1218" 
d="M315 548l364 203c-33 13 -67 19 -102 19c-48 0 -92 -11 -133 -34c-38 -21 -70 -52 -95 -93c-17 -28 -29 -60 -34 -95zM836 449h319c-4 -26 -10 -51 -18 -76c-23 -72 -57 -136 -104 -191c-47 -57 -105 -105 -172 -142c-89 -49 -184 -75 -286 -78s-198 19 -289 66
c-91 46 -163 114 -216 204c-41 67 -65 137 -72 210c-7 74 0 145 22 213c21 69 55 132 104 189c48 58 105 105 171 142c67 38 138 62 213 73c74 11 148 8 222 -8c73 -17 141 -47 203 -89c61 -43 112 -98 153 -165l8 -14l7 -13l-737 -411c35 -47 83 -78 146 -93
c73 -19 141 -11 202 24c62 35 103 87 123 156c1 1 1 2 1 3z" />
    <glyph glyph-name="_382" horiz-adv-x="570" 
d="M516 1503l-1 -288c-78 -5 -131 -19 -159 -43c-27 -25 -41 -74 -41 -147h117l70 -274h-187v-750h-319v1024c0 124 21 219 64 286s103 115 180 146c75 31 167 46 276 46z" />
    <glyph glyph-name="_383B" horiz-adv-x="694" 
d="M-5 1025h115c0 124 21 219 64 286s103 115 180 146c75 31 167 46 276 46l2 -296c-81 1 -135 -11 -162 -35c-27 -25 -41 -74 -41 -147h125l4 -274h-129v-750h-319v750h-115v274z" />
    <glyph glyph-name="_383" horiz-adv-x="1167" 
d="M574 235c69 0 130 25 183 74c52 50 78 110 78 179c0 45 -12 86 -36 125s-56 70 -96 92c-41 22 -84 33 -129 33s-88 -11 -127 -33c-39 -21 -72 -52 -97 -92c-24 -39 -36 -80 -36 -125c0 -69 26 -129 78 -179c53 -49 114 -74 182 -74zM830 977l287 1v-1024h-1v-72
c0 -128 -47 -238 -140 -329c-43 -43 -101 -76 -174 -101c-69 -23 -136 -35 -202 -35h-56c-153 3 -274 49 -363 136c-60 59 -97 112 -110 159l305 173c3 -52 24 -96 63 -132c39 -35 85 -53 138 -53c41 0 80 12 115 35c33 23 58 52 73 88l1 3l2 5l2 8l2 7c2 5 4 12 5 23v2l1 4
l1 4v6h1v102l-8 -4l-8 -3c-66 -27 -136 -40 -210 -40c-97 0 -188 24 -273 71s-153 112 -204 194c-51 83 -77 176 -77 278c0 77 15 149 45 215c30 67 71 124 122 173c49 47 109 85 178 113c67 27 137 40 209 40c123 0 215 -16 276 -47z" />
    <glyph glyph-name="_384" horiz-adv-x="382" 
d="M320 -571l-319 -2v1596h319v-1594zM245 1168c-25 -15 -53 -23 -84 -23s-58 7 -83 22s-45 35 -60 61c-15 27 -23 56 -23 85c0 31 7 59 22 84c16 26 36 46 61 61s52 22 83 22s59 -7 84 -22s45 -36 60 -61s22 -53 22 -84c0 -32 -7 -60 -22 -85s-35 -45 -60 -60z" />
    <glyph glyph-name="_385" horiz-adv-x="1145" 
d="M320 0h-320v1021l320 1v-387h4l331 388h375l-370 -439l435 -584h-399l-376 502v-502z" />
    <glyph glyph-name="_386" horiz-adv-x="1479" 
d="M319 605v-606l-319 1v722c1 9 2 14 3 17v255h195c65 47 150 70 255 70c104 0 177 -11 220 -33c42 -23 77 -54 105 -94c33 41 75 73 125 95c51 21 103 32 156 32c99 0 177 -23 232 -68c54 -45 91 -105 110 -178c19 -71 28 -156 28 -256v-563l-319 1v605
c0 113 -39 170 -117 170c-21 0 -40 -7 -58 -21c-18 -13 -33 -33 -44 -59c-11 -28 -17 -58 -17 -90v-606l-319 1v605c0 113 -39 170 -117 170c-21 0 -40 -7 -58 -21c-18 -13 -33 -33 -44 -59c-11 -28 -17 -58 -17 -90z" />
    <glyph glyph-name="_387" horiz-adv-x="949" 
d="M319 0v608c0 35 6 64 18 89c12 26 28 46 49 60c20 14 41 21 64 21c85 0 128 -57 128 -170v-610l320 2v608c0 293 -132 446 -395 459c-119 0 -224 -27 -317 -82h-187v-984z" />
    <glyph glyph-name="_395B" horiz-adv-x="949" 
d="M319 0v608c0 35 6 64 18 89c12 26 28 46 49 60c20 14 41 21 64 21c85 0 128 -57 128 -170v-610l320 2v608c0 293 -132 446 -395 459c-119 0 -287 -27 -504 -82v-984z" />
    <glyph glyph-name="_388" horiz-adv-x="591" 
d="M539 1050v-304l-4 -14c-78 0 -134 -17 -167 -51c-33 -35 -50 -92 -50 -170v-511h-320v1024h283v-187c19 46 39 83 60 112s45 51 72 66c25 15 56 25 91 31l17 2l10 1z" />
    <glyph glyph-name="_389" horiz-adv-x="1131" 
d="M-1 1022v-1023l311 -1l-1 969v83h1v10l1 3v2c1 11 3 19 5 23l6 22c15 35 37 64 67 86c31 23 66 34 106 34c125 -7 191 -72 198 -193c13 -136 -71 -204 -252 -204v-235l15 1h13c13 0 22 0 25 1h52c63 0 113 -9 150 -28s55 -56 55 -111s-17 -97 -50 -124
c-35 -27 -78 -41 -129 -41c-49 0 -91 11 -126 34c-11 7 -21 14 -32 23v-332c55 -17 109 -26 160 -26c67 0 130 8 188 25c58 15 112 40 163 77c48 35 86 80 114 135c27 56 41 121 41 194c0 44 -7 86 -22 125c-15 41 -36 77 -63 110s-60 60 -97 81c44 40 76 80 95 119
c19 43 29 91 29 146c0 81 -14 148 -43 203c-29 53 -69 108 -120 163c-83 86 -195 130 -334 132h-51c-63 0 -125 -11 -186 -34c-67 -25 -120 -57 -159 -98c-86 -89 -129 -195 -129 -320z" />
    <glyph glyph-name="_390" horiz-adv-x="673" 
d="M64 407l-274 618h274v394l319 -2v-392h212l-71 -274h-141v-319c0 -91 57 -136 170 -136c36 0 64 4 84 13l-92 -318c-19 -3 -35 -4 -49 -4c-95 0 -174 15 -238 46s-112 77 -145 139s-49 140 -49 235z" />
    <glyph glyph-name="_391" horiz-adv-x="742" 
d="M95 1025h108v394l319 -2v-392h194l-72 -274h-122v-750l-319 -1v751h-179z" />
    <glyph glyph-name="_392" horiz-adv-x="624" 
d="M122 0v753h-123l3 269h120v397l319 -2v-395h130l2 -269h-132v-752z" />
    <glyph glyph-name="_393" horiz-adv-x="949" 
d="M579 1020l320 3v-1022h-187c-91 -27 -196 -40 -317 -40c-263 13 -395 166 -395 459v601h320v-601c0 -113 43 -170 128 -170c23 0 44 7 65 21c20 14 36 34 48 60c12 25 18 55 18 89v600z" />
    <glyph glyph-name="_394" horiz-adv-x="1576" 
d="M496 -33h-8l-488 1056h349l169 -439l252 439l248 -433l166 436l342 -2l-469 -1057h-10l-275 563z" />
    <glyph glyph-name="_395" horiz-adv-x="1389" 
d="M206 -555l281 575l-487 1001l339 2l317 -672l324 672h359l-774 -1578h-359z" />
    <glyph glyph-name="_396" horiz-adv-x="1035" 
d="M971 1024l-435 -735h449l-2 -289h-983l452 756h-370l-2 268h891z" />
    <glyph glyph-name="_398B" horiz-adv-x="1415" 
d="M973 427h376c-13 -31 -27 -62 -43 -91c-62 -114 -147 -204 -255 -270c-107 -66 -224 -99 -350 -99s-243 33 -351 99c-107 67 -193 157 -256 270s-94 238 -94 373c0 134 31 259 94 374c63 113 149 203 256 270c108 66 225 99 351 99s243 -33 350 -99
c108 -67 193 -157 255 -270c16 -29 30 -59 42 -90h-376c-25 29 -53 55 -84 76c-59 39 -121 59 -187 59c-68 0 -131 -20 -188 -59c-58 -39 -104 -91 -137 -156c-34 -65 -51 -133 -51 -204s17 -139 51 -204c35 -66 81 -118 137 -157c57 -39 120 -59 188 -59
c67 0 130 20 187 59c32 22 60 48 85 79z" />
    <glyph glyph-name="_397" horiz-adv-x="951" 
d="M899 299l2 -299h-901v1419h859l-3 -301h-508v-246h281l-4 -299h-277v-274h551z" />
    <glyph glyph-name="_398" horiz-adv-x="909" 
d="M348 1l-348 1v1417h859v-301h-511v-245h281l-4 -299h-277v-573z" />
    <glyph glyph-name="_399" horiz-adv-x="1394" 
d="M1303 1246l-205 -254c-45 41 -96 72 -153 95c-56 23 -115 34 -177 34s-118 -10 -168 -31c-52 -21 -97 -50 -134 -87c-37 -38 -66 -83 -87 -134c-21 -49 -31 -105 -31 -167c0 -86 20 -161 60 -224c39 -63 92 -112 161 -145c68 -34 143 -51 226 -51c33 0 70 4 111 12
c40 8 70 22 89 41v205h-262l-2 299h613v-733c-25 -15 -65 -34 -121 -56c-53 -20 -103 -36 -148 -47c-41 -11 -95 -22 -160 -31c-58 -8 -113 -12 -165 -12c-135 0 -260 33 -375 99c-115 67 -207 157 -274 270s-101 238 -101 373c0 134 34 259 101 374c67 113 159 203 274 270
c115 66 240 99 375 99c64 0 131 -8 202 -23c67 -15 131 -38 191 -69c62 -31 115 -67 160 -107z" />
    <glyph glyph-name="_400B" horiz-adv-x="890" 
d="M816 324v-324h-816v1418l348 1v-1095h468z" />
    <glyph glyph-name="_400C" horiz-adv-x="1935" 
d="M1836 0h-350l-201 682l-354 -678l-348 690l-213 -694h-370l534 1450h8l385 -750l414 750h6z" />
    <glyph glyph-name="_400" horiz-adv-x="1549" 
d="M402 913c-36 -65 -54 -133 -54 -204s18 -139 55 -204c37 -66 86 -118 146 -157c61 -39 128 -59 201 -59c72 0 139 20 200 59s110 92 147 157c36 65 54 133 54 204s-18 139 -54 204s-85 117 -146 156c-63 39 -130 59 -201 59c-73 0 -140 -20 -201 -59
c-62 -39 -111 -91 -147 -156zM1118 -261l-222 242c-51 -9 -99 -14 -146 -14c-135 0 -260 33 -375 99c-115 67 -207 157 -274 270s-101 238 -101 373c0 134 34 259 101 374c67 113 159 203 274 270c115 66 240 99 375 99s260 -33 375 -99c115 -67 206 -157 273 -270
c67 -115 101 -240 101 -374c0 -135 -34 -260 -101 -373c-44 -75 -98 -139 -162 -192l178 -198z" />
    <glyph glyph-name="_401" horiz-adv-x="1098" 
d="M360 0v1096h-360v323h1048l-3 -323h-337v-1096h-348z" />
    <glyph glyph-name="_402" horiz-adv-x="1298" 
d="M0 0l678 1096h-589l3 323h1156l-674 -1095h619l-3 -324h-1190z" />
    <glyph glyph-name="_415" horiz-adv-x="951" 
d="M569 841v394h-270v-394h-303v-274h303v-392h270v392h305l1 274h-306z" />
    <glyph glyph-name="_416" horiz-adv-x="669" 
d="M2 567h620l-1 274h-621z" />
    <glyph glyph-name="_417" horiz-adv-x="890" 
d="M3 727h799l-1 274h-801zM3 327h799l-1 274h-801z" />
    <glyph glyph-name="_418" horiz-adv-x="50" 
 />
    <glyph glyph-name="_419" horiz-adv-x="1321" 
d="M1260 659l-1042 -652l169 341l-393 324l1188 747v-289l-279 -175zM715 838l-56 -36l-16 -9l231 -192l35 75zM650 510l-198 162l-72 -45l231 -192z" />
    <glyph glyph-name="_420" horiz-adv-x="742" 
d="M72 751h620l-71 274h-621z" />
    <glyph glyph-name="_422" horiz-adv-x="864" 
d="M601 751v-183h2v-157c0 -19 -1 -37 -2 -55v-25h-2c-7 -59 -22 -111 -45 -155c-33 -62 -81 -108 -145 -139c-62 -31 -141 -46 -238 -46c-19 0 -36 1 -49 4l-92 318c17 -9 45 -13 84 -13c101 0 157 36 168 108v343h-105l-72 274h177c0 124 21 219 64 286s103 115 180 146
c75 31 167 46 276 46l2 -296c-81 1 -135 -11 -162 -35c-27 -25 -41 -74 -41 -147h125l71 -274h-196z" />
    <glyph glyph-name="_421" horiz-adv-x="623" 
d="M0 1452v-1032c0 -94 16 -172 49 -235c33 -62 81 -108 145 -139c62 -31 141 -46 238 -46c19 0 36 1 49 4l92 318c-17 -9 -45 -13 -84 -13c-113 0 -170 45 -170 136v1005z" />
    <glyph glyph-name="_422" horiz-adv-x="2456" 
d="M1427 529l-1 -4c-10 -71 -44 -131 -101 -180c-57 -50 -120 -75 -191 -75s-128 25 -171 75c-43 51 -60 112 -50 182s44 131 101 182c57 50 121 75 192 75s127 -25 170 -75s60 -110 51 -180zM168 983c-82 -145 -134 -296 -156 -455c-23 -155 -13 -306 28 -455
c39 -139 105 -262 199 -371c92 -108 204 -192 336 -251c138 -61 285 -92 442 -92c211 0 415 53 612 160l-103 281c-149 -85 -304 -127 -465 -127c-118 0 -226 22 -323 67c-95 43 -177 105 -246 184c-68 79 -116 169 -145 272c-30 106 -37 217 -21 332c16 116 54 227 114 333
c58 101 132 192 222 272c90 79 189 140 297 183c115 45 229 68 342 68c114 0 222 -23 324 -68c96 -43 178 -104 246 -183s116 -169 145 -272c30 -106 37 -217 21 -333c-1 -33 -8 -67 -22 -102c-28 -69 -76 -103 -143 -103c-41 0 -73 11 -96 32c-19 17 -32 40 -39 69
c-8 35 -9 68 -2 100l81 560h-311l-2 -15l-2 -14c-1 -9 -2 -16 -3 -20c-75 41 -157 61 -248 61c-157 0 -299 -56 -426 -167s-201 -245 -223 -402c-11 -75 -6 -149 14 -222c19 -68 51 -128 96 -180c44 -52 99 -93 164 -122c66 -30 138 -45 215 -45c145 0 277 48 398 144
c55 -79 143 -119 262 -119c153 0 285 49 396 148c113 101 182 234 205 397c22 160 13 312 -28 455c-40 141 -106 265 -199 372c-93 108 -206 192 -337 251c-138 61 -285 92 -441 92c-157 0 -313 -31 -468 -92c-150 -60 -286 -144 -407 -251c-123 -108 -224 -232 -303 -372z
" />
    <glyph glyph-name="_423" horiz-adv-x="949" 
d="M580 644v-631h-1c-5 -27 -9 -49 -12 -64c-21 -60 -55 -111 -103 -154c-47 -43 -104 -73 -171 -91h-2c-1 0 -3 0 -5 -1l-6 -1l-7 -1c-11 -3 -24 -5 -41 -7v-288c53 3 100 10 141 20c119 29 225 84 317 166c91 81 152 175 185 283c12 39 19 80 22 124h2v645
c0 293 -132 446 -395 459c-119 0 -224 -27 -317 -82h-187v-1020l320 -1v644c0 35 6 64 18 89c12 26 28 46 49 60c20 14 41 21 64 21c86 0 129 -57 129 -170z" />
    <glyph glyph-name="Tcedilla" unicode="&#x163;" horiz-adv-x="876" 
d="M404 -169l89 183c-7 2 -22 8 -46 19c-64 31 -112 77 -145 139c-33 61 -49 139 -49 235v346h-253l83 269h170v397l319 -2v-395h247l-65 -269h-182v-321c0 -91 57 -136 170 -136c38 0 66 4 84 13l-92 -318c-15 -3 -32 -4 -49 -4c-7 0 -28 1 -61 2l-56 -87
c25 -9 48 -26 70 -51c23 -27 35 -57 35 -89c0 -47 -25 -88 -74 -121c-47 -32 -104 -48 -171 -48c-59 0 -115 15 -170 46l71 92c31 -24 64 -36 99 -36c33 0 59 7 80 22c19 13 29 28 29 45s-9 32 -28 45c-20 14 -55 22 -105 24z" />
    <glyph glyph-name="uni0401" unicode="&#x401;" horiz-adv-x="951" 
d="M899 299h-551v274h362l-81 299h-281v246h508l3 301h-859v-1419h901zM806 1563c29 16 51 38 67 66c16 27 24 58 24 91c0 50 -18 93 -53 128s-79 52 -132 52c-33 0 -63 -8 -88 -25c-29 -19 -50 -41 -65 -66c-17 -27 -25 -56 -25 -89c0 -31 8 -61 24 -89
c15 -28 37 -50 65 -67c27 -17 56 -25 89 -25c34 0 65 8 94 24zM276 1563c29 16 51 38 67 66c16 27 24 58 24 91c0 50 -18 93 -53 128s-79 52 -132 52c-32 0 -61 -8 -88 -25c-27 -19 -49 -41 -65 -66c-17 -27 -25 -56 -25 -89c0 -31 8 -61 24 -89c15 -28 37 -50 65 -67
c25 -17 55 -25 89 -25s65 8 94 24z" />
    <glyph glyph-name="uni0402" unicode="&#x402;" horiz-adv-x="1511" 
d="M708 553v-553h-348v1096h-273l-87 323h961l84 -323h-337v-209c213 77 390 72 530 -16c139 -89 211 -224 216 -405s-53 -311 -174 -389c-120 -79 -239 -104 -358 -77l-77 344c15 1 32 2 50 3c6 1 13 1 21 1l9 1h8c72 3 116 27 133 72c15 39 11 74 -14 106
c-25 33 -56 57 -93 71c-87 35 -170 20 -251 -45z" />
    <glyph glyph-name="uni0403" unicode="&#x403;" horiz-adv-x="959" 
d="M816 1419l93 -324h-561v-1095l-348 1v1418h816zM529 1537l218 403h-295l-144 -403h221z" />
    <glyph glyph-name="uni0404" unicode="&#x404;" horiz-adv-x="1252" 
d="M350 566h487v268h-494c8 26 19 53 32 80c34 65 80 117 137 156c59 39 122 59 188 59s129 -20 188 -59c25 -16 52 -42 83 -77l229 237c-43 47 -93 89 -150 124c-107 66 -223 99 -350 99c-126 0 -243 -33 -350 -99c-107 -67 -193 -157 -256 -270s-94 -237 -94 -374
c0 -136 31 -260 94 -373c63 -112 148 -202 256 -269c107 -66 224 -99 350 -99c127 0 243 33 350 99c57 35 107 77 152 126l-229 237c-28 -34 -57 -61 -86 -81c-57 -39 -120 -59 -187 -59s-130 20 -187 59s-103 91 -137 156c-11 22 -20 42 -26 60z" />
    <glyph glyph-name="uni0405" unicode="&#x405;" horiz-adv-x="972" 
d="M891 1288l-171 -244c-41 39 -77 66 -109 83c-33 17 -72 26 -116 26c-33 0 -63 -10 -92 -31c-30 -21 -45 -48 -45 -82c0 -48 33 -86 98 -114c55 -24 124 -52 205 -83c71 -28 132 -72 184 -133c51 -61 77 -151 77 -270c0 -152 -46 -269 -137 -350
c-91 -82 -206 -123 -347 -123c-81 0 -160 14 -236 42c-77 28 -144 70 -202 126l188 268c60 -76 139 -114 237 -114c39 0 77 11 113 33c35 21 53 53 53 94c0 49 -33 87 -99 116c-20 9 -54 24 -102 43l-52 21l-53 22c-70 29 -131 73 -183 133c-51 59 -76 146 -76 263
c0 89 22 167 66 234c43 67 100 117 171 152c69 35 143 52 223 52c73 0 145 -14 216 -42c71 -29 134 -69 189 -122z" />
    <glyph glyph-name="uni0406" unicode="&#x406;" horiz-adv-x="398" 
d="M0 1v1418h348v-1419z" />
    <glyph glyph-name="uni0407" unicode="&#x407;" horiz-adv-x="943" 
d="M-273 1v1417h348v-1418zM9 1629c-16 28 -24 58 -24 89c0 33 8 62 25 89c15 27 36 49 65 66c25 17 55 25 88 25c53 0 97 -17 132 -52s53 -78 53 -128c0 -33 -8 -64 -24 -91c-17 -28 -40 -50 -67 -66c-29 -16 -60 -24 -94 -24s-64 8 -89 25c-28 17 -50 39 -65 67z
M-521 1629c-16 28 -24 58 -24 89c0 33 8 62 25 89c15 27 36 49 65 66c25 17 55 25 88 25c53 0 97 -17 132 -52s53 -78 53 -128c0 -33 -8 -64 -24 -91c-17 -28 -40 -50 -67 -66c-29 -16 -60 -24 -94 -24s-64 8 -89 25c-28 17 -50 39 -65 67z" />
    <glyph glyph-name="uni0408" unicode="&#x408;" horiz-adv-x="672" 
d="M628 389v1032l-346 -2v-1005c0 -91 -62 -136 -185 -136c-41 0 -72 4 -91 13l100 -318c14 -3 32 -4 53 -4c104 0 190 15 258 46c70 31 123 78 158 139c35 63 53 142 53 235z" />
    <glyph glyph-name="uni0409" unicode="&#x409;" horiz-adv-x="2034" 
d="M972 1071h-363v-637c0 -75 -7 -140 -21 -194c-15 -55 -39 -99 -73 -133c-34 -36 -81 -63 -142 -80c-60 -18 -136 -27 -228 -27l-105 289c57 0 101 4 134 12c33 7 58 24 75 50c17 25 26 63 26 114v954h1040v-2h5v-515h245c291 0 444 -147 459 -442v-18
c-15 -295 -168 -442 -459 -442h-592v1h-1v1070zM1320 581v-261h213c98 0 149 41 152 122h-1c1 1 1 4 1 9v5l-1 4h1c-3 81 -53 121 -152 121h-213z" />
    <glyph glyph-name="uni040A" unicode="&#x40a;" horiz-adv-x="1894" 
d="M1192 1419v-517h239c291 0 444 -147 459 -442v-18c-15 -295 -168 -442 -459 -442h-592v1h-1v579h-444v-580h-348v1419h348v-518h444v520l343 -2h11zM1399 581h-207v-261h207c98 0 149 41 152 122h-1c1 1 1 4 1 9v5l-1 4h1c-3 81 -53 121 -152 121z" />
    <glyph glyph-name="uni040B" unicode="&#x40b;" horiz-adv-x="1441" 
d="M706 1096v-260c99 72 198 108 295 108c113 0 206 -43 279 -128s109 -203 109 -352v-464h-342v377c0 144 -50 216 -149 216c-72 0 -136 -33 -192 -98v-495h-348v1096h-273l-87 323h961l84 -323h-337z" />
    <glyph glyph-name="uni040C" unicode="&#x40c;" horiz-adv-x="1168" 
d="M667 1539l218 403h-295l-144 -403h221zM367 893v517h-331v-1410h331v556h6l407 -556h374l-492 695c79 59 132 140 159 243c26 103 101 162 224 177l38 301l-12 1h-19l-19 1c-7 1 -14 1 -22 1h-19c-35 0 -64 -1 -87 -4c-71 -7 -130 -25 -179 -53
c-58 -33 -103 -78 -136 -136c-12 -21 -23 -46 -34 -75l-12 -35l-5 -17l-5 -16c-13 -44 -35 -85 -65 -122c-31 -39 -65 -62 -102 -68z" />
    <glyph glyph-name="uni040E" unicode="&#x40e;" horiz-adv-x="1501" 
d="M1476 1419h-386l-342 -639l-340 639h-383l554 -981c-96 -131 -220 -178 -371 -140l35 -310c55 -29 133 -34 235 -13c175 35 338 181 491 439zM1140 1884h-239c-7 -37 -23 -66 -48 -87c-27 -21 -60 -32 -100 -32c-41 0 -75 11 -102 32c-25 21 -42 50 -49 87h-240
c1 -68 18 -127 50 -178c33 -53 78 -95 136 -124c60 -29 126 -44 199 -44c117 0 209 30 276 90c67 59 106 145 117 256z" />
    <glyph glyph-name="uni040F" unicode="&#x40f;" horiz-adv-x="1196" 
d="M417 0v-324h312v324h417v1419h-348v-1100h-450v1100h-348v-1419h417z" />
    <glyph glyph-name="uni0410" unicode="&#x410;" horiz-adv-x="1613" 
d="M921 514h-279l140 252zM1065 252l139 -252h359l-602 1093l-179 326l-180 -326l-602 -1093h359l139 252h567z" />
    <glyph glyph-name="uni0411" unicode="&#x411;" horiz-adv-x="1102" 
d="M379 581v-261h213c98 0 149 41 152 122h-1c1 1 1 4 1 9v5l-1 4h1c-3 81 -53 121 -152 121h-213zM41 1421l343 -2h493l93 -324h-581v-193h245c291 0 444 -147 459 -442v-18c-15 -295 -168 -442 -459 -442h-592v1h-1v1420z" />
    <glyph glyph-name="uni0412" unicode="&#x412;" horiz-adv-x="1086" 
d="M444 1141h-79v-287h92c57 0 99 13 128 39c29 25 43 61 43 108c0 50 -18 86 -54 108c-37 21 -81 32 -130 32zM0 0v1419h417c104 0 200 -12 288 -35c86 -23 156 -63 209 -118s79 -128 79 -219c0 -70 -17 -130 -52 -181c-35 -53 -82 -91 -141 -116v-5c35 -13 66 -31 95 -54
s54 -49 75 -79c21 -28 37 -61 49 -99c11 -38 17 -77 17 -118c0 -119 -44 -214 -132 -286c-89 -73 -223 -109 -402 -109h-502zM457 575h-92v-296h97c139 0 209 48 209 145c0 61 -19 101 -56 121s-89 30 -158 30z" />
    <glyph glyph-name="uni0413" unicode="&#x413;" horiz-adv-x="959" 
d="M816 1419l93 -324h-561v-1095l-348 1v1418h816z" />
    <glyph glyph-name="uni0414" unicode="&#x414;" horiz-adv-x="1618" 
d="M607 319h398v768h-292v-192c-18 -284 -53 -476 -106 -576zM1352 1412v-1092h255v-644h-312v319h-944v-319h-312v644h171c91 51 148 287 170 708v386h967v-2h5z" />
    <glyph glyph-name="uni0415" unicode="&#x415;" horiz-adv-x="951" 
d="M899 299l2 -299h-901v1419h859l-3 -301h-508v-246h281l81 -299h-362v-274h551z" />
    <glyph glyph-name="uni0416" unicode="&#x416;" horiz-adv-x="1955" 
d="M1149 893v517h-331v-517c-36 6 -70 29 -101 68s-53 79 -66 122l-5 16l-5 17l-12 35c-11 29 -22 54 -34 75c-33 58 -78 103 -136 136c-49 28 -108 46 -179 53c-23 3 -52 4 -87 4h-19c-8 0 -15 0 -22 -1l-19 -1h-19l-12 -1l38 -301c123 -15 198 -74 225 -177
c26 -103 79 -184 158 -243l-492 -695h374l407 556h6v-556h331v556h6l407 -556h374l-492 695c79 59 132 140 159 243c26 103 101 162 224 177l38 301l-12 1h-19l-19 1c-7 1 -14 1 -22 1h-19c-35 0 -64 -1 -87 -4c-71 -7 -130 -25 -179 -53c-58 -33 -103 -78 -136 -136
c-12 -21 -23 -46 -34 -75l-12 -35l-5 -17l-5 -16c-13 -44 -35 -85 -65 -122c-31 -39 -65 -62 -102 -68z" />
    <glyph glyph-name="uni0417" unicode="&#x417;" horiz-adv-x="1086" 
d="M249 1040l-243 142c56 90 129 158 218 203s186 67 292 67c84 0 160 -16 227 -49c69 -33 125 -81 167 -144c41 -65 62 -140 62 -223c0 -58 -11 -109 -32 -154c-21 -43 -56 -85 -103 -126c41 -23 76 -51 106 -85c29 -35 52 -74 69 -117c16 -43 24 -87 24 -132
c0 -79 -15 -148 -45 -205c-31 -58 -73 -105 -125 -142c-54 -37 -113 -65 -177 -82c-67 -17 -135 -26 -204 -26c-62 0 -121 9 -178 28c-60 19 -116 46 -169 81c-55 35 -101 75 -138 119l231 235c39 -49 77 -86 114 -109c38 -24 84 -36 138 -36c57 0 103 14 140 43
s55 72 55 131s-20 98 -60 118c-42 19 -97 29 -164 29h-56c-4 -1 -13 -1 -27 -1h-15l-16 -1v248h22c9 0 18 0 27 1h26l27 1c36 1 69 5 99 12s55 22 74 43s28 51 28 92c0 55 -16 95 -48 122c-33 27 -75 40 -126 40c-25 0 -47 -3 -65 -10c-17 -6 -35 -14 -52 -25
c-11 -8 -29 -23 -54 -44c-7 -5 -12 -10 -15 -13c-1 -1 -3 -2 -6 -5l-7 -7c-5 -4 -9 -8 -13 -12l-5 -4z" />
    <glyph glyph-name="uni0418" unicode="&#x418;" horiz-adv-x="1302" 
d="M388 1420l-348 -2l4 -1418l899 735l-1 -731h350l-4 1416l-900 -655v655z" />
    <glyph glyph-name="uni0419" unicode="&#x419;" horiz-adv-x="1302" 
d="M388 1420l-348 -2l4 -1418l899 735l-1 -731h350l-4 1416l-900 -655v655zM1055 1884h-239c-7 -37 -23 -66 -48 -87c-27 -21 -60 -32 -100 -32c-41 0 -75 11 -102 32c-25 21 -42 50 -49 87h-240c1 -68 18 -127 50 -178c33 -53 78 -95 136 -124c60 -29 126 -44 199 -44
c117 0 209 30 276 90c67 59 106 144 117 256z" />
    <glyph glyph-name="uni041A" unicode="&#x41a;" horiz-adv-x="1168" 
d="M367 893v517h-331v-1410h331v556h6l407 -556h374l-492 695c79 59 132 140 159 243c26 103 101 162 224 177l38 301l-12 1h-19l-19 1c-7 1 -14 1 -22 1h-19c-35 0 -64 -1 -87 -4c-71 -7 -130 -25 -179 -53c-58 -33 -103 -78 -136 -136c-12 -21 -23 -46 -34 -75l-12 -35
l-5 -17l-5 -16c-13 -44 -35 -85 -65 -122c-31 -39 -65 -62 -102 -68z" />
    <glyph glyph-name="uni041B" unicode="&#x41b;" horiz-adv-x="1330" 
d="M972 1071h-363v-637c0 -75 -7 -140 -21 -194c-15 -55 -39 -99 -73 -133c-34 -36 -81 -63 -142 -80c-60 -18 -136 -27 -228 -27l-105 289c57 0 101 4 134 12c33 7 58 24 75 50c17 25 26 63 26 114v954h1040v-2h5v-1416l-347 -1v1h-1v1070z" />
    <glyph glyph-name="uni041C" unicode="&#x41c;" horiz-adv-x="1375" 
d="M1328 1418v-1418l-376 1l-1 680l-297 -285l-277 274l-1 -670h-370v1418l648 -554z" />
    <glyph glyph-name="uni041D" unicode="&#x41d;" horiz-adv-x="1196" 
d="M348 0v580h450v-580h348v1419h-348v-518h-450v518h-348v-1419h348z" />
    <glyph glyph-name="uni041E" unicode="&#x41e;" horiz-adv-x="1549" 
d="M402 913c-36 -65 -54 -133 -54 -204s18 -139 55 -204c37 -66 86 -118 146 -157c61 -39 128 -59 201 -59c72 0 139 20 200 59s110 92 147 157c36 65 54 133 54 204s-18 139 -54 204s-85 117 -146 156c-63 39 -130 59 -201 59c-73 0 -140 -20 -201 -59
c-62 -39 -111 -91 -147 -156zM1398 1083c67 -115 101 -240 101 -374c0 -135 -34 -260 -101 -373c-67 -114 -158 -204 -273 -270s-240 -99 -375 -99s-260 33 -375 99c-115 67 -207 157 -274 270s-101 238 -101 373c0 134 34 259 101 374c67 113 159 203 274 270
c115 66 240 99 375 99s260 -33 375 -99c115 -67 206 -157 273 -270z" />
    <glyph glyph-name="uni041F" unicode="&#x41f;" horiz-adv-x="1196" 
d="M348 0v1100h450v-1100h348v1419h-1146v-1419h348z" />
    <glyph glyph-name="uni0420" unicode="&#x420;" horiz-adv-x="1046" 
d="M349 0h-349v1419h424c96 0 177 -7 242 -22c70 -15 129 -40 176 -74c49 -35 87 -82 114 -141c27 -58 40 -130 40 -217c0 -71 -13 -134 -40 -188c-27 -56 -64 -103 -111 -142s-104 -70 -169 -91c-67 -21 -136 -32 -205 -32h-122v-512zM449 1118h-100v-305h100
c64 0 113 13 148 40c34 26 51 64 51 114c0 49 -17 86 -51 112c-35 26 -84 39 -148 39z" />
    <glyph glyph-name="uni0421" unicode="&#x421;" horiz-adv-x="1252" 
d="M1202 194l-229 237c-28 -34 -57 -61 -86 -81c-57 -39 -120 -59 -187 -59s-130 20 -187 59s-103 91 -137 156s-51 133 -51 204s17 139 50 204c34 65 80 117 137 156c59 39 122 59 188 59s129 -20 188 -59c25 -16 52 -42 83 -77l229 237c-43 47 -93 89 -150 124
c-107 66 -223 99 -350 99c-126 0 -243 -33 -350 -99c-107 -67 -193 -157 -256 -270s-94 -237 -94 -374c0 -136 31 -260 94 -373c63 -112 148 -202 256 -269c107 -66 224 -99 350 -99c127 0 243 33 350 99c57 35 107 77 152 126z" />
    <glyph glyph-name="uni0422" unicode="&#x422;" horiz-adv-x="1095" 
d="M360 0v1096h-273l-87 323h961l84 -323h-337v-1096h-348z" />
    <glyph glyph-name="uni0423" unicode="&#x423;" horiz-adv-x="1501" 
d="M1476 1419h-386l-342 -639l-340 639h-383l554 -981c-96 -131 -220 -178 -371 -140l35 -310c55 -29 133 -34 235 -13c175 35 338 181 491 439z" />
    <glyph glyph-name="uni0424" unicode="&#x424;" horiz-adv-x="1535" 
d="M572 1v200l-42 6l-42 7c-83 15 -162 42 -237 81c-76 39 -136 92 -180 161c-45 67 -67 150 -67 251c0 100 23 185 68 256c45 69 104 123 177 162c73 38 152 65 237 81l43 7c16 3 30 5 43 6v200h348v-201c55 -7 113 -18 174 -34c111 -30 205 -84 282 -161
c75 -79 113 -185 113 -316c0 -99 -23 -182 -68 -251s-105 -122 -180 -161s-154 -66 -237 -81c-37 -7 -65 -11 -84 -13v-201zM920 979v-540l10 3l10 3c55 17 98 47 129 89c31 41 47 98 47 170c0 145 -65 236 -196 275zM572 439v540c-131 -39 -196 -130 -196 -275
c0 -73 15 -129 46 -170c33 -43 76 -73 129 -89z" />
    <glyph glyph-name="uni0425" unicode="&#x425;" horiz-adv-x="1416" 
d="M360 -1h-360l475 735l-461 683l383 -1l287 -418l282 418l400 2l-484 -679l481 -741l-386 1l-301 457z" />
    <glyph glyph-name="uni0426" unicode="&#x426;" horiz-adv-x="1359" 
d="M997 0v-324h312v473h-163v1270h-348v-1100h-450v1100h-348v-1419h997z" />
    </font>
</defs>
</svg>
